Морський бій / Battleship (2012) AVC 2xUkr/Eng | Sub Ukr/Eng

Нові коментарі

Нова тема   Відповісти
Автор Повідомлення
staf777 
Відео Гуртом - підтримка та поширення
Відео Гуртом - підтримка та поширення


З нами з: 16.11.16
Востаннє: 23.04.19
Повідомлень: 2285

2018-12-13 16:11  
Морський бій / Battleship (2012) AVC 2xUkr/Eng | Sub Ukr/Eng

Морський бій / Battleship (2012) AVC 2xUkr/Eng | Sub Ukr/Eng


Жанр: екшн, пригодницький, фантастика
Країна: США



Кінокомпанія: Universal Pictures, Hasbro, Bluegrass Films
Режисер: Пітер Берґ
Актори: Тейлор Кітч, Ліам Нісон, Бруклін Декер, Александр Скарсґаард, Ріанна, Пітер МакНікол, Джон Тай, Ґреґорі Д. Ґедсон

Сюжет:
Ми надсилаємо сигнали в космос і чекаємо відповіді. Але чи впевнені ми, що хочемо її отримати? Що якщо прибульці потенційно небезпечні? У 2009 році на конференції у Вашинґтоні астронавт Едгар Мітчелл, який побував на Місяці, зробив сенсаційну заяву про існування позаземного життя. Тепер ми знаємо, контакт не просто можливий, він неминучий!


Тривалість: 02:11:14
Якість: AVC
Відео:
кодек:
розмір кадру: 1024x426
бітрейт: 3200 кб/с

Аудіо # 1:
мова: українська
переклад: професійний дубльований
кодек: 2.0
бітрейт: 384 кб/с

Аудіо # 2:
мова: українська
переклад: багатоголосий закадровий
кодек: 2.0
бітрейт: 192 кб/с

Аудіо # 3:
мова: англійська
переклад: оригінал
кодек: 5.1
бітрейт: 448 кб/с

Субтитри # 1-2: (форсовані ,повні)
мова: українська
тип: програмні (м'які)
формат: *.srt

Субтитри # 3-4:
мова: англійська
тип: програмні (м'які)
формат: *.srt
Info
General
Unique ID : 337477904844076035273084067766960173512 (0xFDE3E1581E433351E0E70B0FE83CB1C8)
Complete name : N:\Battleship (2012) AVC [2xUKR] [ENG] [Hurtom].
Format :
Format version : Version 4 / Version 2
File size : 3.88 GiB
Duration : 2 h 11 min
Overall bit rate : 4 227 kb/s
Movie name : Battleship (2012) AVC [2xUKR] [ENG] [Hurtom]
Encoded date : UTC 2018-12-14 09:56:31
Writing application : v24.0.0 ('Beyond The Pale') 64-bit
Writing library : libebml v1.3.6 + v1.4.9
Cover : Yes
Attachments : cover.jpg

Video
ID : 1
Format : AVC
Format/Info : Advanced Video Codec
Format profile : [email protected]
Format settings : CABAC / 8 Ref Frames
Format settings, CABAC : Yes
Format settings, ReFrames : 8 frames
Codec ID : V_MPEG4/ISO/AVC
Duration : 2 h 11 min
Bit rate : 3 200 kb/s
Width : 1 024 pixels
Height : 426 pixels
Display aspect ratio : 2.40:1
Frame rate mode : Constant
Frame rate : 23.976 (24000/1001) FPS
Color space : YUV
Chroma subsampling : 4:2:0
Bit depth : 8 bits
Scan type : Progressive
Bits/(Pixel*Frame) : 0.306
Stream size : 2.93 GiB (76%)
Writing library : core 125 r2208 d9d2288
Encoding settings : cabac=1 / ref=8 / deblock=1:-2:-2 / analyse=0x3:0x133 / me=umh / subme=11 / psy=1 / psy_rd=1.00:0.15 / mixed_ref=1 / me_range=48 / chroma_me=1 / trellis=2 / 8x8dct=1 / cqm=0 / deadzone=21,11 / fast_pskip=0 / chroma_qp_offset=-3 / threads=3 / lookahead_threads=1 / sliced_threads=0 / nr=0 / decimate=0 / interlaced=0 / bluray_compat=0 / constrained_intra=0 / bframes=8 / b_pyramid=2 / b_adapt=2 / b_bias=0 / direct=3 / weightb=1 / open_gop=0 / weightp=2 / keyint=240 / keyint_min=23 / scenecut=40 / intra_refresh=0 / rc=2pass / mbtree=0 / bitrate=3200 / ratetol=1.0 / qcomp=0.60 / qpmin=0 / qpmax=69 / qpstep=4 / cplxblur=20.0 / qblur=0.5 / ip_ratio=1.40 / pb_ratio=1.30 / aq=1:1.00
Language : English
Default : Yes
Forced : No

Audio #1
ID : 2
Format : AC-3
Format/Info : Audio Coding 3
Codec ID : A_AC3
Duration : 2 h 11 min
Bit rate mode : Constant
Bit rate : 384 kb/s
Channel(s) : 2 channels
Channel positions : Front: L R
Sampling rate : 48.0 kHz
Frame rate : 31.250 FPS (1536 SPF)
Bit depth : 16 bits
Compression mode : Lossy
Stream size : 360 MiB (9%)
Title : / 5.1 ch / 384 kbps
Language : Ukrainian
Service kind : Complete Main
Default : Yes
Forced : Yes

Audio #2
ID : 3
Format : AC-3
Format/Info : Audio Coding 3
Codec ID : A_AC3
Duration : 2 h 11 min
Bit rate mode : Constant
Bit rate : 192 kb/s
Channel(s) : 2 channels
Channel positions : Front: L R
Sampling rate : 48.0 kHz
Frame rate : 31.250 FPS (1536 SPF)
Bit depth : 16 bits
Compression mode : Lossy
Stream size : 180 MiB (5%)
Title : [UA-MVO]
Language : Ukrainian
Service kind : Complete Main
Default : No
Forced : No

Audio #3
ID : 4
Format : AC-3
Format/Info : Audio Coding 3
Codec ID : A_AC3
Duration : 2 h 11 min
Bit rate mode : Constant
Bit rate : 448 kb/s
Channel(s) : 6 channels
Channel positions : Front: L C R, Side: L R, LFE
Sampling rate : 48.0 kHz
Frame rate : 31.250 FPS (1536 SPF)
Bit depth : 16 bits
Compression mode : Lossy
Stream size : 421 MiB (11%)
Language : English
Service kind : Complete Main
Default : No
Forced : No

Text #1
ID : 5
Format : UTF-8
Codec ID : S_TEXT/UTF8
Codec ID/Info : UTF-8 Plain Text
Duration : 2 h 8 min
Bit rate : 1 b/s
Count of elements : 33
Stream size : 1.71 KiB (0%)
Title : Forced
Language : Ukrainian
Default : Yes
Forced : Yes

Text #2
ID : 6
Format : UTF-8
Codec ID : S_TEXT/UTF8
Codec ID/Info : UTF-8 Plain Text
Duration : 2 h 4 min
Bit rate : 81 b/s
Count of elements : 1109
Stream size : 74.0 KiB (0%)
Title : Full
Language : Ukrainian
Default : No
Forced : No

Text #3
ID : 7
Format : UTF-8
Codec ID : S_TEXT/UTF8
Codec ID/Info : UTF-8 Plain Text
Duration : 2 h 9 min
Bit rate : 47 b/s
Count of elements : 1386
Stream size : 44.7 KiB (0%)
Language : English
Default : No
Forced : No

Text #4
ID : 8
Format : UTF-8
Codec ID : S_TEXT/UTF8
Codec ID/Info : UTF-8 Plain Text
Duration : 2 h 9 min
Bit rate : 58 b/s
Count of elements : 1489
Stream size : 55.7 KiB (0%)
Language : English
Default : No
Forced : No







Подяка пану Skiff за Аудіо №1 , пану POMEO за запис Аудіо №2 та пану Arsenfpu за синхронізацію. xfstheта Gelios українські субтитри.

Джерело: &
Особиста оцінка: 0 - не дивився


 Трекер:    Зареєстрований   

Завантажити / скачати фільм українською



відео для новачків



 Зареєстрований:   2018-12-14 13:51
 Розмір:   3.88 GB 
 Оцінка фільму:   8.6/10 (Голосів: 16)
   
Інші релізи
   Останній бій (American Warships) / The American Battleship (2012) Ukr/Eng drop_plz  3 / 0   1.37 GB   2018-04-30 08:20 
   Морський бій / Battleship (2012) 1080p 2xUkr/Eng | Sub Ukr/Eng staf777  4 / 0   13.81 GB   2018-02-11 12:36 
   Морський бій / Battleship (2012) 2xUkr/Eng | Sub Ukr/Eng Gelios  10 / 0   2.18 GB   2016-02-25 21:22 
   Морський бій / Battleship (2012) 720p-mini (60fps) Drool  3 / 0   6.43 GB   2015-05-06 09:12 
   Морський бій / Battleship (2012) Ukr/Eng antik_2008  3 / 0   2.54 GB   2012-11-22 16:53 
   Морський бій / Battleship (2012) Skiff  7 / 0   2.12 GB   2012-11-22 16:52 
   Морський бій / Battleship (2012) 720p Ukr/Eng | Sub Ukr/Eng | Line Zeus62  7 / 0   4.2 GB   2012-09-14 13:02 
   Морський бій / Battleship (2012) 720p Ukr/Eng | Sub Ukr/Eng 11FrYkT  3 / 0   5.98 GB   2012-09-11 21:38 
   Морський бій (Лінкор) / Battleship (2012) Ukr / Eng | sub Ukr / Eng patriot2305  1 / 0   1.63 GB   2012-08-17 18:37 
bot 
робот


З нами з: 30.09.07
Востаннє: 26.05.05
Повідомлень: 21238

2018-12-14 13:50  
Тему перенесено з Анонси релізів до форуму Фільми


staf777

Ваш часовий пояс: GMT + 2 Години

Нова тема   Відповісти