Поганий Санта 2 / Bad Santa 2 (2016) AVC Ukr/Eng | Sub Eng

Нові коментарі

Нова тема   Відповісти
Автор Повідомлення
staf777 
Відео Гуртом - підтримка та поширення
Відео Гуртом - підтримка та поширення


З нами з: 16.11.16
Востаннє: 04.12.19
Повідомлень: 3038

2018-12-13 11:57  
Поганий Санта 2 / Bad Santa 2 (2016) AVC Ukr/Eng | Sub Eng

Поганий Санта 2 / Bad Santa 2 (2016) AVC Ukr/Eng | Sub Eng
Оригінальна обкладинка

Поганий Санта 2 / Bad Santa 2 (2016) AVC Ukr/Eng | Sub Eng
Жанр: комедія, кримінальний
Країна: США



Кінокомпанія: Broad Green Pictures, Ingenious Media, Miramax
Режисер: Марк Вотерс
Актори: Біллі Боб Торнтон, Крістіна Гендрікс, Кеті Бейтс, Тоні Кокс, Бретт Келлі, Раян Гансен, Дженні Зіґріно, Джефф Сковрон, Крістіна Розато, Октавія Спенсер

Сюжет:
А він все п'є та не пропускає повз жодної спідниці, і хоче в переддень Різдва заробити легких грошей. В костюмі Санти Віллі збирається вкрасти два мільйони у благодійної компанії в Чикаго. Цього разу його команда складатиметься не тільки з карлика Маркуса, а ще й з мами Віллі - Санні. Ще більш чорна і мерзенна комедія, яка несе в собі глибокий сенс. Які ж чари трапляться з Віллі на Різдво цього разу?


Тривалість: 01:32:16
Якість: AVC
Відео:
кодек:
розмір кадру: 1008x546
бітрейт: 1819 кб/с

Аудіо # 1:
мова: українська
переклад: багатоголосий закадровий | студія Tretyakoff production
кодек: 2.0
бітрейт: 192 кб/с
Увага! В проміжку 30хв 08 сек по 31хв 39 немає перекладу. У прокаті наших кінотеатрів цю частину фільму вирізали.

Аудіо # 2:
мова: англійська
переклад: оригінал
кодек: 5.1
бітрейт: 384 кб/с

Субтитри:
мова: англійська
тип: пререндерні
формат: *.pgs
Info
General
Unique ID : 63217160935716636386628663450371577394 (0x2F8F2EACD1ED6B625419326EE8F35632)
Complete name : N:\Bad Santa 2 (2016) [Theatrical Cut] AVC [UKR][ENG][Hurtom].
Format :
Format version : Version 4 / Version 2
File size : 1.55 GiB
Duration : 1 h 32 min
Overall bit rate : 2 412 kb/s
Movie name : Bad Santa 2 (2016) [Theatrical Cut] AVC [UKR][ENG][Hurtom]
Encoded date : UTC 2018-12-14 22:25:43
Writing application : v24.0.0 ('Beyond The Pale') 64-bit
Writing library : libebml v1.3.6 + v1.4.9
Cover : Yes
Attachments : cover.jpg

Video
ID : 1
Format : AVC
Format/Info : Advanced Video Codec
Format profile : [email protected]
Format settings : CABAC / 12 Ref Frames
Format settings, CABAC : Yes
Format settings, ReFrames : 12 frames
Codec ID : V_MPEG4/ISO/AVC
Duration : 1 h 32 min
Bit rate : 1 819 kb/s
Width : 1 008 pixels
Height : 546 pixels
Display aspect ratio : 1.85:1
Frame rate mode : Constant
Frame rate : 23.976 (24000/1001) FPS
Color space : YUV
Chroma subsampling : 4:2:0
Bit depth : 8 bits
Scan type : Progressive
Bits/(Pixel*Frame) : 0.138
Stream size : 1.17 GiB (75%)
Title : potroks
Writing library : core 146 r2538 121396c
Encoding settings : cabac=1 / ref=12 / deblock=1:-2:-2 / analyse=0x3:0x113 / me=umh / subme=11 / psy=1 / psy_rd=1.00:0.05 / mixed_ref=1 / me_range=48 / chroma_me=1 / trellis=2 / 8x8dct=1 / cqm=0 / deadzone=21,11 / fast_pskip=0 / chroma_qp_offset=-3 / threads=9 / lookahead_threads=2 / sliced_threads=0 / nr=0 / decimate=0 / interlaced=0 / bluray_compat=0 / constrained_intra=0 / bframes=13 / b_pyramid=2 / b_adapt=2 / b_bias=0 / direct=3 / weightb=1 / open_gop=0 / weightp=2 / keyint=240 / keyint_min=23 / scenecut=40 / intra_refresh=0 / rc_lookahead=60 / rc=2pass / mbtree=0 / bitrate=1819 / ratetol=1.0 / qcomp=0.70 / qpmin=0 / qpmax=69 / qpstep=4 / cplxblur=20.0 / qblur=0.5 / vbv_maxrate=14000 / vbv_bufsize=14000 / nal_hrd=none / filler=0 / ip_ratio=1.40 / pb_ratio=1.30 / aq=1:0.80
Language : English
Default : Yes
Forced : No

Audio #1
ID : 2
Format : AC-3
Format/Info : Audio Coding 3
Codec ID : A_AC3
Duration : 1 h 32 min
Bit rate mode : Constant
Bit rate : 192 kb/s
Channel(s) : 2 channels
Channel positions : Front: L R
Sampling rate : 48.0 kHz
Frame rate : 31.250 FPS (1536 SPF)
Bit depth : 16 bits
Compression mode : Lossy
Stream size : 127 MiB (8%)
Language : Ukrainian
Service kind : Complete Main
Default : Yes
Forced : Yes

Audio #2
ID : 3
Format : AC-3
Format/Info : Audio Coding 3
Codec ID : A_AC3
Duration : 1 h 32 min
Bit rate mode : Constant
Bit rate : 384 kb/s
Channel(s) : 6 channels
Channel positions : Front: L C R, Side: L R, LFE
Sampling rate : 48.0 kHz
Frame rate : 31.250 FPS (1536 SPF)
Bit depth : 16 bits
Compression mode : Lossy
Stream size : 253 MiB (16%)
Language : English
Service kind : Complete Main
Default : No
Forced : No

Text
ID : 4
Format : PGS
Muxing mode : zlib
Codec ID : S_HDMV/PGS
Codec ID/Info : Picture based subtitle format used on BDs/HD-DVDs
Duration : 1 h 25 min
Bit rate : 60.3 kb/s
Count of elements : 2912
Stream size : 36.9 MiB (2%)
Language : English
Default : No
Forced : No

Menu
00:00:00.000 : en:(01)00:00:00:000
00:05:53.226 : en:(02)00:05:53:226
00:11:00.743 : en:(03)00:11:00:743
00:16:22.855 : en:(04)00:16:22:855
00:20:13.545 : en:(05)00:20:13:545
00:25:28.902 : en:(06)00:25:28:902
00:29:34.646 : en:(07)00:29:34:646
00:33:45.565 : en:(08)00:33:45:565
00:36:51.333 : en:(09)00:36:51:333
00:41:14.221 : en:(10)00:41:14:221
00:43:27.896 : en:(11)00:43:27:896
00:50:13.635 : en:(12)00:50:13:635
00:58:34.760 : en:(13)00:58:34:760
01:03:55.373 : en:(14)01:03:55:373
01:11:07.512 : en:(15)01:11:07:512
01:15:37.990 : en:(16)01:15:37:990
01:19:47.698 : en:(17)01:19:47:698
01:23:09.692 : en:(18)01:23:09:692
01:32:16.279 : en:(19)01:32:16:279




За українську доріжку подяка пану Covenant
За допомогу з придбанням звуку на цей фільм подяка ведучим цієї теми" Контент для придбання" заходьте туди і підтримуйте

Джерело: &
Особиста оцінка: 0 - не дивився
ЗАЛИШАЙТЕСЬ ЯКОМОГА ДОВШЕ НА РОЗДАЧІ!

СКАЧАВ САМ - ДАЙ СКАЧАТИ ІНШИМ



 Трекер:    Зареєстрований   

Завантажити / скачати фільм українською



відео для новачків



 Зареєстрований:   2018-12-15 00:48
 Розмір:   1.55 GB 
 Оцінка фільму:   7.6/10 (Голосів: 13)
   
Інші релізи
   Поганий Санта 2 / Bad Santa 2 (2016) 720p Ukr/Eng | Sub Eng 11FrYkT  4 / 0   2.07 GB   2017-02-19 17:00 
   Поганий Санта 2 / Bad Santa 2 (2016) 1080p Ukr/Eng | Sub Eng 11FrYkT  1 / 0   7.17 GB   2017-02-18 17:02 
   Поганий Санта 2 / Bad Santa 2 (2016) Remux 1080p Ukr/Eng | Sub Eng staf777  3 / 0   24.44 GB   2017-02-17 11:47 
   Поганий Санта 2 / Bad Santa 2 (2016) Ukr/Eng Covenant  3 / 0   1.45 GB   2017-02-17 00:09 
bot 
робот


З нами з: 30.09.07
Востаннє: 26.05.05
Повідомлень: 22589

2018-12-15 00:48  
Тему перенесено з Анонси релізів до форуму Фільми


staf777

Ваш часовий пояс: GMT + 2 Години

Нова тема   Відповісти