Університет монстрів / Monsters University (2013) 1080p H.265 Ukr/Eng | Sub Ukr/Eng

Нові коментарі

Нова тема   Відповісти
Автор Повідомлення
Anonymous 







2018-12-13 12:45  
Університет монстрів / Monsters University (2013) 1080p H.265 Ukr/Eng | Sub Ukr/Eng

Університет монстрів / Monsters University (2013) 1080p H.265 Ukr/Eng | Sub Ukr/Eng


Жанр: анімація, комедія, пригодницький, сімейний
Країна: США
Кінокомпанія: Walt Disney Pictures, Pixar Animation Studios
Режисер: Ден Скенлон / Dan Scanlon
Актори: Джон Ґудмен / John Goodman, Біллі Крістал / Billy Crystal, Стів Бушемі / Steve Buscemi, Гелен Міррен / Helen Mirren, Пітер Сон / Peter Sohn, Джоель Мюррей / Joel Murray, Шон Гейс / Sean Hayes, Дейв Фолі / Dave Foley, Чарлі Дей / Charlie Day, Альфред Моліна / Alfred Molina

Сюжет:
Майк і Саллі, герої відомої майже кожному анімаційної стрічки "Корпорація монстрів" не завжди були друзями. Цей мультфільм розповість, як ця дивна парочка зав'язала знайомство. Вперше вони познайомилися ще в коледжі, куди пішли вивчати вищі аспекти по Ляканню дітей. Вони були повною протилежністю один одному і навіть ворогували між собою, поки їх не звела спільна робота по "диплому", яка не обійшлася без пригод. Саме спільне рішення проблеми і здружило невротика Майка і здорованя Саллі.

Тривалість: 01:44:17
Якість:
Відео:
кодек: H.265 (HEVC)
розмір кадру: 1920 x 1080
бітрейт: 6 130 кб/с
частота кадрів: 23.976 fps
біт піксель: 0.123 BPP
бітова глибина: 10 біт
Увага! Перед завантаженням переконайтесь, що ваш пристрій відтворення (та/або ПЗ) підтримує H.265 (HEVC)

Аудіо # 1:
мова: українська
переклад: професійний дубльований
кодек: AC-3 5.1
бітрейт: 384 кб/с

Аудіо # 2:
мова: англійська
переклад: оригінал
кодек: AC-3 5.1
бітрейт: 640 кб/с

Субтитри # 1:
мова: українська (Full),
тип: програмні (м'які)
формат: *.srt

Субтитри # 2:
мова: англійська (Full),
тип: програмні (м'які)
формат: *.srt

Субтитри # 3:
мова: англійська (SDH),
тип: програмні (м'які)
формат: *.srt


Info
Код:
General
Unique ID                                : 250913174088937912218058378846577099299 (0xBCC41E9A4C8022488D26ED599AC80223)
Complete name                            : G:\Video\Mult\Monsters University (2013) 1080p H.265 [UKR_ENG].
Format                                   :
Format version                           : Version 4 / Version 2
File size                                : 5.21 GiB
Duration                                 : 1 h 44 min
Overall bit rate                         : 7 152 kb/s
Movie name                               : Monsters University (2013)
Encoded date                             : UTC 2018-10-19 08:24:20
Writing application                      : v20.0.0 ('I Am The Sun') 32-bit
Writing library                          : libebml v1.3.5 + v1.4.8
Cover                                    : Yes
Attachments                              : cover.jpg

Video
ID                                       : 1
Format                                   : HEVC
Format/Info                              : High Efficiency Video Coding
Format profile                           : Main [email protected]@High
Codec ID                                 : V_MPEGH/ISO/HEVC
Duration                                 : 1 h 44 min
Bit rate                                 : 6 130 kb/s
Width                                    : 1 920 pixels
Height                                   : 1 080 pixels
Display aspect ratio                     : 16:9
Frame rate mode                          : Constant
Frame rate                               : 23.976 (23976/1000) FPS
Original frame rate                      : 23.976 (24000/1001) FPS
Color space                              : YUV
Chroma subsampling                       : 4:2:0
Bit depth                                : 10 bits
Bits/(Pixel*Frame)                       : 0.123
Stream size                              : 4.47 GiB (86%)
Writing library                          : x265 2.8+19-bcdc610cf5f0:[Windows][GCC 7.3.0][64 bit] 10bit
Encoding settings                        : cpuid=1111039 / frame-threads=13 / numa-pools=12 / wpp / no-pmode / no-pme / no-psnr / no-ssim / log-level=3 / input-csp=1 / input-res=1920x1080 / interlace=0 / total-frames=0 / level-idc=51 / high-tier=1 / uhd-bd=0 / ref=6 / allow-non-conformance / no-repeat-headers / annexb / no-aud / no-hrd / info / hash=0 / no-temporal-layers / open-gop / min-keyint=24 / keyint=240 / gop-lookahead=0 / bframes=10 / b-adapt=2 / b-pyramid / bframe-bias=0 / rc-lookahead=60 / lookahead-slices=6 / scenecut=40 / radl=0 / no-intra-refresh / ctu=64 / min-cu-size=8 / no-rect / no-amp / max-tu-size=32 / tu-inter-depth=3 / tu-intra-depth=3 / limit-tu=0 / rdoq-level=0 / dynamic-rd=0.00 / no-ssim-rd / signhide / no-tskip / nr-intra=0 / nr-inter=0 / no-constrained-intra / strong-intra-smoothing / max-merge=3 / limit-refs=3 / no-limit-modes / me=3 / subme=7 / merange=64 / temporal-mvp / weightp / weightb / no-analyze-src-pics / deblock=-3:-3 / no-sao / no-sao-non-deblock / rd=4 / no-early-skip / rskip / no-fast-intra / no-tskip-fast / no-cu-lossless / no-b-intra / no-splitrd-skip / rdpenalty=0 / psy-rd=2.00 / psy-rdoq=0.00 / no-rd-refine / no-lossless / cbqpoffs=0 / crqpoffs=0 / rc=crf / crf=16.0 / qcomp=0.60 / qpstep=1 / stats-write=0 / stats-read=0 / vbv-maxrate=160000 / vbv-bufsize=160000 / vbv-init=0.9 / crf-max=30.0 / crf-min=0.0 / ipratio=1.40 / pbratio=1.30 / aq-mode=3 / aq-strength=0.80 / cutree / zone-count=0 / no-strict-cbr / qg-size=32 / no-rc-grain / qpmax=69 / qpmin=0 / no-const-vbv / sar=1 / overscan=0 / videoformat=5 / range=0 / colorprim=2 / transfer=2 / colormatrix=2 / chromaloc=0 / display-window=0 / max-cll=0,0 / min-luma=0 / max-luma=1023 / log2-max-poc-lsb=8 / vui-timing-info / vui-hrd-info / slices=1 / no-opt-qp-pps / no-opt-ref-list-length-pps / no-multi-pass-opt-rps / scenecut-bias=0.05 / no-opt-cu-delta-qp / no-aq-motion / no-hdr / no-hdr-opt / no-dhdr10-opt / no-idr-recovery-sei / analysis-reuse-level=5 / scale-factor=0 / refine-intra=0 / refine-inter=0 / refine-mv=0 / no-limit-sao / ctu-info=0 / no-lowpass-dct / refine-mv-type=0 / copy-pic=1 / max-ausize-factor=1.0 / no-dynamic-refine / no-single-sei
Default                                  : Yes
Forced                                   : No

Audio #1
ID                                       : 2
Format                                   : AC-3
Format/Info                              : Audio Coding 3
Codec ID                                 : A_AC3
Duration                                 : 1 h 43 min
Bit rate mode                            : Constant
Bit rate                                 : 384 kb/s
Channel(s)                               : 6 channels
Channel positions                        : Front: L C R, Side: L R, LFE
Sampling rate                            : 48.0 kHz
Frame rate                               : 31.250 FPS (1536 SPF)
Bit depth                                : 16 bits
Compression mode                         : Lossy
Stream size                              : 285 MiB (5%)
Title                                    : 5.1 @ 384 kbps
Language                                 : Ukrainian
Service kind                             : Complete Main
Default                                  : Yes
Forced                                   : Yes

Audio #2
ID                                       : 3
Format                                   : AC-3
Format/Info                              : Audio Coding 3
Codec ID                                 : A_AC3
Duration                                 : 1 h 43 min
Bit rate mode                            : Constant
Bit rate                                 : 640 kb/s
Channel(s)                               : 6 channels
Channel positions                        : Front: L C R, Side: L R, LFE
Sampling rate                            : 48.0 kHz
Frame rate                               : 31.250 FPS (1536 SPF)
Bit depth                                : 16 bits
Compression mode                         : Lossy
Stream size                              : 475 MiB (9%)
Title                                    : 5.1 @ 640 kbps
Language                                 : English
Service kind                             : Complete Main
Default                                  : No
Forced                                   : No

Text #1
ID                                       : 4
Format                                   : UTF-8
Codec ID                                 : S_TEXT/UTF8
Codec ID/Info                            : UTF-8 Plain Text
Duration                                 : 1 h 42 min
Bit rate                                 : 90 b/s
Count of elements                        : 1365
Stream size                              : 68.2 KiB (0%)
Title                                    : Full
Language                                 : Ukrainian
Default                                  : No
Forced                                   : No

Text #2
ID                                       : 5
Format                                   : UTF-8
Codec ID                                 : S_TEXT/UTF8
Codec ID/Info                            : UTF-8 Plain Text
Duration                                 : 1 h 42 min
Bit rate                                 : 56 b/s
Count of elements                        : 1367
Stream size                              : 42.4 KiB (0%)
Title                                    : Full
Language                                 : English
Default                                  : No
Forced                                   : No

Text #3
ID                                       : 6
Format                                   : UTF-8
Codec ID                                 : S_TEXT/UTF8
Codec ID/Info                            : UTF-8 Plain Text
Duration                                 : 1 h 42 min
Bit rate                                 : 70 b/s
Count of elements                        : 1851
Stream size                              : 53.0 KiB (0%)
Title                                    : SDH
Language                                 : English
Default                                  : No
Forced                                   : No

Menu
00:00:00.000                             : en:Field Trip
00:06:26.719                             : en:Titles
00:07:06.884                             : en:Freshman Orientation
00:10:54.111                             : en:Roommates
00:12:19.947                             : en:First Day
00:16:09.968                             : en:Not My Room
00:18:15.635                             : en:Pig Chase
00:19:37.592                             : en:A Challenge
00:21:06.848                             : en:1st Semester Showdown
00:23:43.630                             : en:Kicked Out
00:29:22.718                             : en:Dream Over
00:30:39.462                             : en:Mike's Plan
00:33:38.098                             : en:OK Brothers
00:36:30.979                             : en:Initiation
00:38:19.421                             : en:First Morning
00:39:22.567                             : en:Toxicity Challenge
00:45:13.334                             : en:My Way
00:47:14.831                             : en:Keep Quiet
00:51:08.147                             : en:Party Like Scarers
00:55:21.192                             : en:Cute-me Kappa
00:57:30.321                             : en:The Big Leagues
01:01:42.239                             : en:Teamwork
01:04:37.289                             : en:A Seed Of Doubt
01:07:33.006                             : en:Final Competition
01:14:11.320                             : en:A Betrayal
01:18:07.848                             : en:Door Breach
01:19:25.718                             : en:Searching For Mike
01:23:53.402                             : en:Shut Down
01:24:38.655                             : en:The Big Scare
01:28:00.232                             : en:Separate Ways
01:32:51.356                             : en:Epilogue
01:34:24.032                             : en:End Credits
Світлини




Джерело:
Особиста оцінка: 10 - без зайвих вагань рекомендую всім!


>>> Усі мої релізи <<<



 Трекер:    Зареєстрований   

Завантажити / скачати мультфільм українською



відео для новачків



 Зареєстрований:   2018-12-13 12:45
 Розмір:   5.21 GB 
 Оцінка мультфільму:   9.5/10 (Голосів: 11)
   
Ваш часовий пояс: GMT + 2 Години

Нова тема   Відповісти