Ті, що говорять із вітром / Windtalkers (2002) 1080p 3xUkr/Eng | Sub Ukr/Eng

Нові коментарі

Нова тема   Відповісти
Автор Повідомлення
Anonymous 







2018-12-13 09:56  
Ті, що говорять із вітром / Windtalkers (2002) 1080p 3xUkr/Eng | Sub Ukr/Eng

Ті, що говорять із вітром / Windtalkers (2002) 1080p 3xUkr/Eng | Sub Ukr/Eng


Жанр: екшн, історичний, військовий
Країна: США



Кінокомпанія: Metro-Goldwyn-Mayer (MGM), Lion Rock Productions
Режисер: Джон Ву (John Woo)
Актори: Ніколас Кейдж (Nicolas Cage), Адам Біч (Adam Beach), Петер Стормаре (Peter Stormare), Ноа Еммерік (Noah Emmerich), Марк Руффало (Mark Ruffalo), Брайан Ван Холт (Brian Van Holt), Мартін Хендерсон (Martin Henderson), Роджер Уіллі (Roger Willie), Френсіс О'Коннор (Frances O'Connor), Крістіан Слейтер (Christian Slater), Джейсон Айзекс (Jason Isaacs), Кевін Куні (Kevin Cooney), Холмс Осборн (Holmes Osborne), Кіт Кемпбелл (Keith Campbell), Скотт Еткінсон (Scott Atkinson), Джеремі Девідсон (Jeremy Davidson), Джеймс Д. Девер (James D. Dever), Кріс Девлін (Chris Devlin), Джеф Девіс (Jeff Davis), Аарон Ямагата (Aaron Yamagata), Вікторія Чен (Victoria Chen), Роберт Агіляр мол. (Robert Aguilar Jr.), Тімоті Ді Прі (Timothy Di Pri), Меттю Джанмар (Matthew Junmar)

Сюжет:
Друга світова війна. Америка веде запеклі бої з японцями в Тихому океані. У перебігу цієї війни японці майстерно розшифровують секретні американські радіограми. Ця обставина змусила американський уряд завербувати кілька сотень індіанців Навахо, щоб використовувати їх рідну мову як код для секретних повідомлень.

Морському піхотинцеві Джо Ендерсу дається завдання: охороняти Бена Яхзі, який знає секретний код, охороняти за будь-яку ціну, і навіть вбити свого підопічного, якщо він потрапить у полон до ворогів. Джо належить вирішити, чиїм життям пожертвувати - своїм або Беновим - щоб захистити код ...


Тривалість: 02:14:21
Якість: 1080p
Відео:
кодек:
розмір кадру: 1920х794
бітрейт: 9 482 кб/с

Аудіо # 1:
мова: українська
переклад: професійний дубльований
кодек: 2.0
бітрейт: 192 кб/с

Аудіо # 2:
мова: українська
переклад: двоголосий закадровий | ТакТребаПродакшн
кодек: 5.1
бітрейт: 384 кб/с

Аудіо # 3:
мова: українська
переклад: багатоголосий закадровий
кодек: 2.0
бітрейт: 192 кб/с

Аудіо # 4:
мова: англійська
переклад: оригінал
кодек: 5.1
бітрейт: 384 кб/с

Субтитри:
мова: українська
тип: програмні (м'які)
формат: *.srt

Субтитри:
мова: англійська
тип: програмні (м'які)
формат: *.srt
Info

General
Unique ID : 239450172072253966255628153997970527033 (0xB4246CF7F09EEA7ABEA35535D2A25339)
Format :
Format version : Version 4
File size : 9.98 GiB
Duration : 2 h 14 min
Overall bit rate : 10.6 Mb/s
Encoded date : UTC 2019-06-23 13:40:28
Writing application : v6.1.0 ('Old Devil') built on Mar 4 2013 09:10:42
Writing library : libebml v1.3.0 + v1.4.0

Video
ID : 1
Format : AVC
Format/Info : Advanced Video Codec
Format profile : [email protected]
Format settings : CABAC / 5 Ref Frames
Format settings, CABAC : Yes
Format settings, RefFrames : 5 frames
Codec ID : V_MPEG4/ISO/AVC
Duration : 2 h 14 min
Bit rate : 9 482 kb/s
Width : 1 920 pixels
Height : 794 pixels
Display aspect ratio : 2.40:1
Frame rate mode : Constant
Frame rate : 23.976 (24000/1001) FPS
Color space : YUV
Chroma subsampling : 4:2:0
Bit depth : 8 bits
Scan type : Progressive
Bits/(Pixel*Frame) : 0.259
Stream size : 8.70 GiB (87%)
Writing library : core 138 r2359+704+48 3f879a0 tMod [[email protected] X86_64]
Encoding settings : cabac=1 / ref=5 / deblock=1:-3:-3 / analyse=0x3:0x113 / me=umh / subme=10 / psy=1 / fade_compensate=0.00 / psy_rd=0.90:0.15 / mixed_ref=1 / me_range=64 / chroma_me=1 / trellis=2 / 8x8dct=1 / cqm=0 / deadzone=21,11 / fast_pskip=0 / chroma_qp_offset=-3 / threads=6 / lookahead_threads=1 / sliced_threads=0 / nr=0 / decimate=1 / interlaced=0 / bluray_compat=0 / constrained_intra=0 / fgo=0 / bframes=9 / b_pyramid=2 / b_adapt=2 / b_bias=0 / direct=3 / weightb=1 / open_gop=0 / weightp=2 / keyint=250 / keyint_min=23 / scenecut=40 / intra_refresh=0 / rc_lookahead=120 / rc=2pass / mbtree=0 / bitrate=9482 / ratetol=1.0 / qcomp=0.75 / qpmin=0:0:0 / qpmax=69:69:69 / qpstep=4 / cplxblur=20.0 / qblur=0.5 / vbv_maxrate=50000 / vbv_bufsize=62500 / nal_hrd=none / ip_ratio=1.40 / pb_ratio=1.30 / aq=4:0.80 / aq-sensitivity=10.00 / aq-factor=1.00:1.00:1.00 / aq2=1:1.00 / aq2-sensitivity=15.00 / aq2-factor=1.00:1.00:1.00 / aq3=0
Language : English
Default : Yes
Forced : No
Color range : Limited
Matrix coefficients : BT.709

Audio #1
ID : 2
Format : AC-3
Format/Info : Audio Coding 3
Commercial name : Dolby Digital
Codec ID : A_AC3
Duration : 2 h 14 min
Bit rate mode : Constant
Bit rate : 192 kb/s
Channel(s) : 2 channels
Channel layout : L R
Sampling rate : 48.0 kHz
Frame rate : 31.250 FPS (1536 SPF)
Bit depth : 16 bits
Compression mode : Lossy
Stream size : 185 MiB (2%)
Title : UKR (НЛО-ТБ)
Language : Ukrainian
Service kind : Complete Main
Default : Yes
Forced : Yes

Audio #2
ID : 3
Format : AC-3
Format/Info : Audio Coding 3
Commercial name : Dolby Digital
Codec ID : A_AC3
Duration : 2 h 14 min
Bit rate mode : Constant
Bit rate : 384 kb/s
Channel(s) : 6 channels
Channel layout : L R C LFE Ls Rs
Sampling rate : 48.0 kHz
Frame rate : 31.250 FPS (1536 SPF)
Bit depth : 16 bits
Compression mode : Lossy
Delay relative to video : 208 ms
Stream size : 369 MiB (4%)
Title : UKR (ТакТребаПродакшн)
Language : Ukrainian
Service kind : Complete Main
Default : No
Forced : No

Audio #3
ID : 4
Format : AC-3
Format/Info : Audio Coding 3
Commercial name : Dolby Digital
Codec ID : A_AC3
Duration : 2 h 14 min
Bit rate mode : Constant
Bit rate : 192 kb/s
Channel(s) : 2 channels
Channel layout : L R
Sampling rate : 48.0 kHz
Frame rate : 31.250 FPS (1536 SPF)
Bit depth : 16 bits
Compression mode : Lossy
Stream size : 185 MiB (2%)
Title : UKR (AMC)
Language : Ukrainian
Service kind : Complete Main
Default : No
Forced : No

Audio #4
ID : 5
Format : AC-3
Format/Info : Audio Coding 3
Commercial name : Dolby Digital
Codec ID : A_AC3
Duration : 2 h 14 min
Bit rate mode : Constant
Bit rate : 384 kb/s
Channel(s) : 6 channels
Channel layout : L R C LFE Ls Rs
Sampling rate : 48.0 kHz
Frame rate : 31.250 FPS (1536 SPF)
Bit depth : 16 bits
Compression mode : Lossy
Stream size : 369 MiB (4%)
Language : English
Service kind : Complete Main
Default : No
Forced : No

Text #1
ID : 6
Format : UTF-8
Codec ID : S_TEXT/UTF8
Codec ID/Info : UTF-8 Plain Text
Title : UKR
Language : Ukrainian
Default : Yes
Forced : No

Text #2
ID : 7
Format : UTF-8
Codec ID : S_TEXT/UTF8
Codec ID/Info : UTF-8 Plain Text
Language : English
Default : No
Forced : No

Menu
00:00:00.000 : en:00:00:00.000
00:04:33.481 : en:00:04:33.481
00:08:51.655 : en:00:08:51.655
00:13:01.321 : en:00:13:01.321
00:18:54.007 : en:00:18:54.007
00:24:18.831 : en:00:24:18.831
00:27:36.279 : en:00:27:36.279
00:31:50.199 : en:00:31:50.199
00:34:01.789 : en:00:34:01.789
00:36:47.538 : en:00:36:47.538
00:42:50.943 : en:00:42:50.943
00:49:23.960 : en:00:49:23.960
00:54:36.690 : en:00:54:36.690
00:58:10.612 : en:00:58:10.612
01:01:03.076 : en:01:01:03.076
01:03:57.083 : en:01:03:57.083
01:07:45.561 : en:01:07:45.561
01:13:38.622 : en:01:13:38.622
01:16:14.278 : en:01:16:14.278
01:23:47.897 : en:01:23:47.897
01:28:35.560 : en:01:28:35.560
01:32:28.584 : en:01:32:28.584
01:33:53.627 : en:01:33:53.627
01:41:05.476 : en:01:41:05.476
01:44:54.912 : en:01:44:54.912
01:47:47.919 : en:01:47:47.919
01:52:52.055 : en:01:52:52.055
01:57:19.365 : en:01:57:19.365
02:02:27.631 : en:02:02:27.631
02:05:11.462 : en:02:05:11.462
02:07:35.647 : en:02:07:35.647
02:09:43.609 : en:02:09:43.609
Скріншоти








За українську доріжку №1 та субтитри подяка п. urij546724
За запис звуку з каналу АМС дякуємо пану Sando7
За запис звуку з каналу НЛО-ТБ дякуємо пану Bohdan237
Особиста подяка пану denixx за надану матеріальну допомогу на підтримку цього і майбутніх релізів.
Джерело:


Срібний реліз (на рейтинг впливає 50% завантаженого)
 Трекер:    Зареєстрований   

Завантажити / скачати фільм українською



відео для новачків



 Зареєстрований:   2019-06-23 16:48
 Розмір:   9.98 GB 
 Оцінка фільму:   7.5/10 (Голосів: 6)
   
Ваш часовий пояс: GMT + 2 Години

Нова тема   Відповісти