Всесвіт персонажів Marvel від Sony / Sony's Universe of Marvel Characters (2018-2019) 1080p H.265 Ukr/Eng | Sub Ukr/Eng

Нові коментарі

Нова тема   Відповісти
Автор Повідомлення
Anonymous 







2018-12-12 17:27  
Всесвіт персонажів Marvel від Sony / Sony's Universe of Marvel Characters (2018-2019) 1080p H.265 Ukr/Eng | Sub Ukr/Eng

Всесвіт персонажів Marvel від Sony / Sony's Universe of Marvel Characters (2018-2019) 1080p H.265 Ukr/Eng | Sub Ukr/Eng

Кінокомпанія: Sony Pictures, Columbia Pictures, Marvel Entertainment
Жанр: екшн, фантастика, пригодницький, бойовик
Країна: США

1.

1. Веном / Venom (2018) UHD 1080p H.265 Ukr/Eng | Sub Ukr/Eng
Веном / Venom (2018) UHD 1080p H.265 Ukr/Eng | Sub Ukr/Eng

Всесвіт персонажів Marvel від Sony / Sony's Universe of Marvel Characters (2018-2019) 1080p H.265 Ukr/Eng | Sub Ukr/Eng


Жанр: фантастика, бойовик, жахи, трилер
Країна: США
Кінокомпанія: Sony Pictures, Columbia Pictures, Marvel Entertainment
Режисер: Рубен Флейшер
Актори: Том Харді, Мішель Вільямс, Марчелла Браджіо, Вуді Гаррельсон, Дженні Слейт, Різ Ахмед, Мак Брандт, Рон Сепас Джонс

Сюжет:
Історія журналіста Едді Брока, який є колегою і суперником Пітера Паркера. Одного разу в нього вселяється інопланетний паразит, і Брок перетворюється в мстиву істоту на ім'я Веном.

Тривалість: 01:52:08
Якість: UHD

Відео:
кодек: H.265 (HEVC)
розмір кадру: 1920 x 800
бітрейт: 7 017 кб/с
бітова глибина: 10 біт

Увага! Перед завантаженням переконайтесь, що ваш пристрій відтворення (та/або ПЗ) підтримує H.265 (HEVC)

Аудіо # 1:
мова: українська
переклад: професійний дубльований
кодек: AC-3 5.1
бітрейт: 640 кб/с

Аудіо # 2:
мова: англійська
переклад: оригінал
кодек: 5.1
бітрейт: 1510 кб/с

Субтитри # 1-2: (Forced, Full)
мова: українська
тип: програмні (м'які)
формат: *.srt

Субтитри # 3-4: (Full, SDH)
мова: англійська
тип: програмні (м'які)
формат: *.srt


Info
Код:
General
Unique ID                                : 34634849155710980039163469004450687787 (0x1A0E6DE7508EB8CBF3076DB780CDEB2B)
Complete name                            : 1. Venom (2018) 1080p H.265 [UKR_ENG] [Hurtom].
Format                                   :
Format version                           : Version 4
File size                                : 7.18 GiB
Duration                                 : 1 h 52 min
Overall bit rate                         : 9 169 kb/s
Movie name                               : Веном / Venom (2018)
Encoded date                             : UTC 2019-11-17 11:36:22
Writing application                      : v20.0.0 ('I Am The Sun') 64-bit
Writing library                          : libebml v1.3.5 + v1.4.8
Cover                                    : Yes
Attachments                              : Cover.jpg

Video
ID                                       : 1
Format                                   : HEVC
Format/Info                              : High Efficiency Video Coding
Format profile                           : Main [email protected]@High
Codec ID                                 : V_MPEGH/ISO/HEVC
Duration                                 : 1 h 52 min
Bit rate                                 : 7 016 kb/s
Width                                    : 1 920 pixels
Height                                   : 800 pixels
Display aspect ratio                     : 2.40:1
Frame rate mode                          : Constant
Frame rate                               : 23.976 (24000/1001) FPS
Color space                              : YUV
Chroma subsampling                       : 4:2:0
Bit depth                                : 10 bits
Bits/(Pixel*Frame)                       : 0.191
Stream size                              : 5.50 GiB (77%)
Title                                    : Веном / Venom (2018)
Writing library                          : x265 3.2+5-354901970679:[Windows][clang 8.0.1][64 bit] 10bit
Encoding settings                        : cpuid=1049583 / frame-threads=5 / numa-pools=4 / wpp / no-pmode / no-pme / no-psnr / no-ssim / log-level=3 / input-csp=1 / input-res=1920x800 / interlace=0 / total-frames=0 / level-idc=41 / high-tier=1 / uhd-bd=0 / ref=5 / allow-non-conformance / no-repeat-headers / annexb / no-aud / no-hrd / info / hash=0 / no-temporal-layers / open-gop / min-keyint=24 / keyint=240 / gop-lookahead=0 / bframes=14 / b-adapt=2 / b-pyramid / bframe-bias=0 / rc-lookahead=40 / lookahead-slices=5 / scenecut=40 / radl=0 / no-splice / no-intra-refresh / ctu=32 / min-cu-size=8 / no-rect / no-amp / max-tu-size=32 / tu-inter-depth=4 / tu-intra-depth=4 / limit-tu=1 / rdoq-level=1 / dynamic-rd=0.00 / no-ssim-rd / signhide / no-tskip / nr-intra=0 / nr-inter=0 / no-constrained-intra / no-strong-intra-smoothing / max-merge=5 / limit-refs=1 / no-limit-modes / me=3 / subme=7 / merange=57 / temporal-mvp / no-frame-dup / no-hme / weightp / no-weightb / no-analyze-src-pics / deblock=-3:-3 / no-sao / no-sao-non-deblock / rd=3 / selective-sao=0 / early-skip / no-rskip / no-fast-intra / no-tskip-fast / no-cu-lossless / b-intra / no-splitrd-skip / rdpenalty=0 / psy-rd=2.00 / psy-rdoq=1.00 / no-rd-refine / no-lossless / cbqpoffs=0 / crqpoffs=0 / rc=crf / crf=20.0 / qcomp=0.60 / qpstep=4 / stats-write=0 / stats-read=0 / vbv-maxrate=50000 / vbv-bufsize=50000 / vbv-init=0.9 / crf-max=0.0 / crf-min=0.0 / ipratio=1.40 / pbratio=1.30 / aq-mode=3 / aq-strength=1.00 / no-cutree / zone-count=0 / no-strict-cbr / qg-size=32 / no-rc-grain / qpmax=69 / qpmin=0 / no-const-vbv / sar=1 / overscan=0 / videoformat=5 / range=0 / colorprim=1 / transfer=1 / colormatrix=1 / chromaloc=0 / display-window=0 / cll=0,0 / min-luma=0 / max-luma=1023 / log2-max-poc-lsb=8 / vui-timing-info / vui-hrd-info / slices=1 / no-opt-qp-pps / no-opt-ref-list-length-pps / no-multi-pass-opt-rps / scenecut-bias=0.05 / no-opt-cu-delta-qp / no-aq-motion / no-hdr / no-hdr-opt / no-dhdr10-opt / no-idr-recovery-sei / analysis-reuse-level=5 / scale-factor=0 / refine-intra=0 / refine-inter=0 / refine-mv=1 / refine-ctu-distortion=0 / no-limit-sao / ctu-info=0 / no-lowpass-dct / refine-analysis-type=0 / copy-pic=1 / max-ausize-factor=1.0 / no-dynamic-refine / no-single-sei / no-hevc-aq / no-svt / no-field / qp-adaptation-range=1.00
Language                                 : English
Default                                  : Yes
Forced                                   : No
Color range                              : Limited
Color primaries                          : BT.709
Transfer characteristics                 : BT.709
Matrix coefficients                      : BT.709

Audio #1
ID                                       : 2
Format                                   : AC-3
Format/Info                              : Audio Coding 3
Commercial name                          : Dolby Digital
Codec ID                                 : A_AC3
Duration                                 : 1 h 52 min
Bit rate mode                            : Constant
Bit rate                                 : 640 kb/s
Channel(s)                               : 6 channels
Channel layout                           : L R C LFE Ls Rs
Sampling rate                            : 48.0 kHz
Frame rate                               : 31.250 FPS (1536 SPF)
Bit depth                                : 16 bits
Compression mode                         : Lossy
Stream size                              : 513 MiB (7%)
Title                                    : / 5.1 Ch / 640 kbps / ПД / Blu-Ray
Language                                 : Ukrainian
Service kind                             : Complete Main
Default                                  : Yes
Forced                                   : Yes

Audio #2
ID                                       : 3
Format                                   :
Format/Info                              : Digital Theater Systems
Codec ID                                 : A_DTS
Duration                                 : 1 h 52 min
Bit rate mode                            : Constant
Bit rate                                 : 1 509 kb/s
Channel(s)                               : 6 channels
Channel layout                           : C L R Ls Rs LFE
Sampling rate                            : 48.0 kHz
Frame rate                               : 93.750 FPS (512 SPF)
Bit depth                                : 16 bits
Compression mode                         : Lossy
Stream size                              : 1.18 GiB (16%)
Title                                    : / 5.1 Ch / 1509 kbps / Original
Language                                 : English
Default                                  : No
Forced                                   : No

Text #1
ID                                       : 4
Format                                   : UTF-8
Codec ID                                 : S_TEXT/UTF8
Codec ID/Info                            : UTF-8 Plain Text
Duration                                 : 1 h 32 min
Bit rate                                 : 0 b/s
Count of elements                        : 6
Stream size                              : 172 Bytes (0%)
Title                                    : Forced
Language                                 : Ukrainian
Default                                  : Yes
Forced                                   : Yes

Text #2
ID                                       : 5
Format                                   : UTF-8
Codec ID                                 : S_TEXT/UTF8
Codec ID/Info                            : UTF-8 Plain Text
Duration                                 : 1 h 50 min
Bit rate                                 : 85 b/s
Count of elements                        : 1396
Stream size                              : 69.0 KiB (0%)
Title                                    : Full
Language                                 : Ukrainian
Default                                  : No
Forced                                   : No

Text #3
ID                                       : 6
Format                                   : UTF-8
Codec ID                                 : S_TEXT/UTF8
Codec ID/Info                            : UTF-8 Plain Text
Duration                                 : 1 h 49 min
Bit rate                                 : 56 b/s
Count of elements                        : 1395
Stream size                              : 45.1 KiB (0%)
Title                                    : Full
Language                                 : English
Default                                  : No
Forced                                   : No

Text #4
ID                                       : 7
Format                                   : UTF-8
Codec ID                                 : S_TEXT/UTF8
Codec ID/Info                            : UTF-8 Plain Text
Duration                                 : 1 h 49 min
Bit rate                                 : 56 b/s
Count of elements                        : 1395
Stream size                              : 45.1 KiB (0%)
Title                                    : SDH
Language                                 : English
Default                                  : No
Forced                                   : No

Menu
00:00:00.000                             : :Chapter 1
00:04:43.200                             : :Chapter 2
00:10:58.074                             : :Chapter 3
00:17:34.929                             : :Chapter 4
00:24:05.486                             : :Chapter 5
00:32:18.812                             : :Chapter 6
00:40:07.447                             : :Chapter 7
00:46:51.976                             : :Chapter 8
00:53:26.203                             : :Chapter 9
01:00:57.070                             : :Chapter 10
01:04:01.796                             : :Chapter 11
01:08:36.446                             : :Chapter 12
01:11:12.852                             : :Chapter 13
01:14:15.743                             : :Chapter 14
01:21:18.749                             : :Chapter 15
01:27:15.021                             : :Chapter 16
Світлини




Інші кіновсесвіти Marvel


Джерело:
Особиста оцінка: 10 - без зайвих вагань рекомендую всім!


 Трекер:    Зареєстрований   

Завантажити / скачати фільм українською



відео для новачків



 Зареєстрований:   2019-11-17 13:47
 Розмір:   7.18 GB 
 Оцінка фільму:   8.4/10 (Голосів: 20)
   
zoomymba2012 
VIP


З нами з: 08.01.15
Востаннє: 05.12.19
Повідомлень: 653

2018-12-12 18:57  
Цитата:
Інші кіновселенні Marvel

Серйозно?

starlost 
VIP


З нами з: 06.08.15
Востаннє: 06.12.19
Повідомлень: 453

2018-12-12 19:15  
-Star-Lord-
ви кажете що кіна(фільми) кудись вселяються?

upd: вже не актуально

Anonymous 







2018-12-12 19:15  
starlost
Вже зрозумів)
Гальмую)

respect14 
VIP


З нами з: 26.01.11
Востаннє: 05.12.19
Повідомлень: 580

2018-12-12 20:55  
А чого цей фільм окремо від всіх Марвелівських?
zoomymba2012 
VIP


З нами з: 08.01.15
Востаннє: 05.12.19
Повідомлень: 653

2018-12-12 21:05  
respect14
Поки що окремо, але цей фільм в одному всесвіті з сольним фільмом Павучка (котрий з Голландом). І Соні намагаються налагодити стосунки з Марвел/Діснеєм, тому не бачу причин через які ми не побачимо кросовер. Ну, першоджерело одне, фільми успішні - чекаємо кросовер.

respect14 
VIP


З нами з: 26.01.11
Востаннє: 05.12.19
Повідомлень: 580

2018-12-12 22:45  
zoomymba2012
Ааа типу ліцензія на Веном належить Соні?

Anonymous 







2018-12-12 23:31  
respect14
Саме так.

respect14 
VIP


З нами з: 26.01.11
Востаннє: 05.12.19
Повідомлень: 580

2018-12-12 23:38  
-Star-Lord-
Але чомусь знімають разом з Марвел...
А ще на яких супергероїв Соні має ліцензію? Що ще вийде?

zoomymba2012 
VIP


З нами з: 08.01.15
Востаннє: 05.12.19
Повідомлень: 653

2018-12-13 07:11  
respect14
Ну Соні мають ліцензію на Павука та усіх його антагоністів. На них і основуватиметься цей всесвіт: Морбіус, Чорна кішка, Срібний соболь, Крейвен-мисливець. Зараз вже йде підготовка до зйомок Морбіуса, роль якого зіграє Джаред Лето. Ще сиквел Венома починають розробляти.

Anonymous 







2018-12-20 22:56  
Додати доріжку від iTunes чи почекати на ліцензію?
zoomymba2012 
VIP


З нами з: 08.01.15
Востаннє: 05.12.19
Повідомлень: 653

2018-12-20 23:08  
-Star-Lord-
Якщо є нормальний шанс ліцензії то краще почекати.

Jack Smiles 
Попереджень: 1
Попереджень: 1 


З нами з: 24.06.16
Востаннє: 05.12.19
Повідомлень: 104

2018-12-20 23:18  
-Star-Lord-
Авжеж додавай! Ті хто хочуть чекати ліценьзії хай чекають.

zoomymba2012 
VIP


З нами з: 08.01.15
Востаннє: 05.12.19
Повідомлень: 653

2018-12-20 23:20  
Jack Smiles
Ну народ ті може завантажити окремі релізи Венома...
А зайвий раз оновлювати цілу колекцію, навіщо?

Anonymous 







2018-12-21 13:01  
Оновлення:
-> укр. доріжка з
-> заміна оригінальної доріжки на 5.1
-> додано укр. саби

ievgensobko 
Новенький


З нами з: 05.01.16
Востаннє: 03.12.19
Повідомлень: 1

2018-12-24 13:59  
-Star-Lord-
Щось не качається нічого...

Anonymous 







2019-11-17 13:47  
Якісніший відеоряд.
HELLOHAOS 
Свій


З нами з: 13.02.09
Востаннє: 04.12.19
Повідомлень: 70

2019-11-17 15:53  
Але ж Павучок теж належить Соні
Electroz 
Відео Гуртом - підтримка та поширення
Відео Гуртом - підтримка та поширення


З нами з: 18.09.14
Востаннє: 06.12.19
Повідомлень: 3653

2019-11-17 15:55  
Anonymous написано:
Всесвіт персонажів Marvel від Sony

Нічого, що тут один фільм?

Anonymous 







2019-11-17 17:58  
Electroz
Ні. Поки в цьому кіновсесвіті 1 фільм. Вийдуть інші - кількість збільшиться.

Denysyjo 
Новенький


З нами з: 20.05.16
Востаннє: 05.12.19
Повідомлень: 1

2019-11-19 15:12  
Я б додав ще й анімаційку Людина Павук:Навколо Всесвіту, бо цей всесвіт і всесвіт Венома є в одному мультивсесвіті Sony, хоч зараз їх ще не пов'язали.
zoomymba2012 
VIP


З нами з: 08.01.15
Востаннє: 05.12.19
Повідомлень: 653

2019-11-19 15:31  
Denysyjo
~

Для цього мульту можна створити ще окремий реліз, бо там також планується розвиток франшизи з продовженнями, спін-оффами та мультсеріалами. Ну і ніяких новин про кросовер з цим кіновсесвітом не було. Ми ж не будемо закидувати Зоряні війни та КВМ в один реліз через те, що це одна студія?

Black Demon 
Новенький


З нами з: 28.11.19
Востаннє: 05.12.19
Повідомлень: 9

2019-11-28 18:33  
respect14 написано:
Ааа типу ліцензія на Веном належить Соні?

respect14 написано:
Але чомусь знімають разом з Марвел...

Разом з Marvel вони знімають лише сольні фільми про Людину-павука з Томом Холландом. Виробництвом решти фільмів ("Веном", "Морбіус") займається лише компанія Sony, без участі Marvel Studios, і відповідно, нічого окрім "Людини-паука" в MCU не входить.

Ваш часовий пояс: GMT + 2 Години

Нова тема   Відповісти