Нація убивць / Assassination Nation (2018) 1080p Ukr/Eng | Sub Eng

Нові коментарі

Нова тема   Відповісти
Автор Повідомлення
staf777 
Відео Гуртом - підтримка та поширення
Відео Гуртом - підтримка та поширення


З нами з: 16.11.16
Востаннє: 24.04.19
Повідомлень: 2284

2018-12-12 10:46  
Нація убивць / Assassination Nation (2018) 1080p Ukr/Eng | Sub Eng


Альтернативний постер


Жанр: драма, комедія, кримінальний, трилер
Країна: США



Кінокомпанія: BRON Studios, Foxtail Entertainment, Phantom Four
Режисер: Сем Левінсон
Актори: Одесса Янґ, С'юкі Вотерхаус, Гарі Неф, Ґабріель Олівія Мірвіль, Белла Торн, Колман Домінго ,Білл Скарсгард ,Джоел МакХейл, Аніка Ноні Роуз, Коді Крістіан та інші

Сюжет:
На що здатні жителі тихого містечка, якщо їх зачепити за живе? Більшість з нас ніколи про це не дізнається, а от жителям Салема випала така нагода. Головні героїні фільму – це чотири шкільні подруги. Вони веселяться на повну, відриваючись на вечірках. Як і більшість одноліток, фотографують усе, що бачать та викладають це у соцмережі. На відміну від старих закомплексованих дядечок та тітоньок, які дуже хвилюються за свою репутацію. Містом почала ширитися інформація: один за одним зламані усі переписки та фото кількох городян. І їм було що приховувати, тож ганьби не уникнути. Так їм і треба – констатували дівчата. Радіти цьому лишилось не довго – у мережу виставлені приватні дані майже на усіх жителів Салема. Місто захлинається від люті та масових вбивств. Більшість постраждалих звинувачує у хакерстві дівчат. Миритися з таким наклепом вони не збираються.


Тривалість: 01:47:59
Якість: 1080p
Відео:
кодек:
розмір кадру: 1920x808
бітрейт: 8634 кб/с

Аудіо # 1:
мова: українська
переклад: професійний дубльований | студія ААА-sound
кодек: 2.0
бітрейт: 192 кб/с
Інформація про дубляж
Перекладач: Віталій Жук
Редактор: Юлія Когут
Режисер дубляжу та звукорежисер перезапису: Олександр Єфімов
Ролі дублювали: Дарина Муращенко, Павло Скороходько, Катерина Буцька, Олександр Солодкий, Ганна Чиж, Михайло Тишин, Олена Узлюк, Дмитро Гаврилов, Іван Розін, Юлія Перенчук, Євген Пашин, Юлія Шаповал, Михайло Кришталь, Арсен Шавлюк, Ярослав Чорненький та інші.

Фільм дубльовано студією ААА-sound у 2018 році на замовлення компанії UFD.
Аудіо # 2:
мова: англійська
переклад: оригінал
кодек: 5.1
бітрейт: 1509 кб/с

Субтитри:
мова: англійська
тип: програмні (м'які)
формат: *.srt
Info
General
Unique ID : 161123416031340918044773012901395165003 (0x79373DBD2A20E6601CEEEC106563EF4B)
Complete name : G:\Assassination Nation (2018) 1080p [UKR][ENG][Hurtom].
Format :
Format version : Version 4 / Version 2
File size : 7.80 GiB
Duration : 1 h 47 min
Overall bit rate : 10.3 Mb/s
Movie name : Assassination Nation (2018) 1080p [UKR][ENG][Hurtom]
Encoded date : UTC 2018-12-12 07:34:02
Writing application : v24.0.0 ('Beyond The Pale') 64-bit
Writing library : libebml v1.3.6 + v1.4.9
Cover : Yes
Attachments : cover.jpg

Video
ID : 1
Format : AVC
Format/Info : Advanced Video Codec
Format profile : [email protected]
Format settings : CABAC / 5 Ref Frames
Format settings, CABAC : Yes
Format settings, ReFrames : 5 frames
Codec ID : V_MPEG4/ISO/AVC
Duration : 1 h 47 min
Bit rate : 8 634 kb/s
Width : 1 920 pixels
Height : 808 pixels
Display aspect ratio : 2.40:1
Frame rate mode : Constant
Frame rate : 23.976 (24000/1001) FPS
Color space : YUV
Chroma subsampling : 4:2:0
Bit depth : 8 bits
Scan type : Progressive
Bits/(Pixel*Frame) : 0.232
Stream size : 6.51 GiB (83%)
Writing library : core 157 r2935 545de2f
Encoding settings : cabac=1 / ref=5 / deblock=1:-3:-3 / analyse=0x3:0x133 / me=umh / subme=8 / psy=1 / psy_rd=1.00:0.00 / mixed_ref=1 / me_range=16 / chroma_me=1 / trellis=1 / 8x8dct=1 / cqm=0 / deadzone=21,11 / fast_pskip=0 / chroma_qp_offset=-2 / threads=25 / lookahead_threads=4 / sliced_threads=0 / nr=0 / decimate=1 / interlaced=0 / bluray_compat=0 / constrained_intra=0 / bframes=3 / b_pyramid=2 / b_adapt=1 / b_bias=0 / direct=3 / weightb=1 / open_gop=0 / weightp=2 / keyint=250 / keyint_min=23 / scenecut=40 / intra_refresh=0 / rc_lookahead=50 / rc=2pass / mbtree=1 / bitrate=8634 / ratetol=1.0 / qcomp=0.60 / qpmin=0 / qpmax=69 / qpstep=4 / cplxblur=20.0 / qblur=0.5 / vbv_maxrate=62500 / vbv_bufsize=78125 / nal_hrd=none / filler=0 / ip_ratio=1.40 / aq=1:1.00
Default : Yes
Forced : No

Audio #1
ID : 2
Format : AC-3
Format/Info : Audio Coding 3
Codec ID : A_AC3
Duration : 1 h 47 min
Bit rate mode : Constant
Bit rate : 192 kb/s
Channel(s) : 2 channels
Channel positions : Front: L R
Sampling rate : 48.0 kHz
Frame rate : 31.250 FPS (1536 SPF)
Bit depth : 16 bits
Compression mode : Lossy
Stream size : 148 MiB (2%)
Title : AAA-Sound
Language : Ukrainian
Service kind : Complete Main
Default : Yes
Forced : Yes

Audio #2
ID : 3
Format :
Format/Info : Digital Theater Systems
Codec ID : A_DTS
Duration : 1 h 47 min
Bit rate mode : Constant
Bit rate : 1 509 kb/s
Channel(s) : 6 channels
Channel positions : Front: L C R, Side: L R, LFE
Sampling rate : 48.0 kHz
Frame rate : 93.750 FPS (512 SPF)
Bit depth : 24 bits
Compression mode : Lossy
Stream size : 1.14 GiB (15%)
Language : English
Default : No
Forced : No

Text
ID : 4
Format : VobSub
Muxing mode : zlib
Codec ID : S_VOBSUB
Codec ID/Info : Picture based subtitle format used on DVDs
Duration : 1 h 46 min
Bit rate : 7 181 b/s
Count of elements : 1589
Stream size : 5.48 MiB (0%)
Language : English
Default : No
Forced : No

Menu
00:00:00.000 : :00:00:00.000
00:22:06.367 : :00:22:06.367
00:43:51.712 : :00:43:51.712
01:01:11.334 : :01:01:11.334
01:16:31.170 : :01:16:31.170
01:21:47.694 : :01:21:47.694
01:28:27.135 : :01:28:27.135
01:39:32.884 : :01:39:32.884







Джерело: &
Особиста оцінка: 8 - мені сподобалося
Нація убивць / Assassination Nation (2018) 1080p Ukr/Eng | Sub Eng Нація убивць / Assassination Nation (2018) 1080p Ukr/Eng | Sub Eng


 Трекер:    Зареєстрований   

Завантажити / скачати фільм українською



відео для новачків



 Зареєстрований:   2018-12-12 10:46
 Розмір:   7.8 GB 
 Оцінка фільму:   6.8/10 (Голосів: 23)
   
Інші релізи
Cerguk 
Свій


З нами з: 30.09.09
Востаннє: 24.04.19
Повідомлень: 62

2018-12-15 11:50  
За реліз дякую, проте мені здається що з цим ріпом щось не гаразд. Протягом всього фільму з періодичністю десь в 10-15 хв. картинка просто банально зупинялась (хоча хронометраж фільму при цьому продовжував рухатись далі) і допомагало "розворушити" картинку лише невелике перемотування назад чи вперед. Тоді картинка далі продовжувала рухатись хвилин 10-15 до наступної зупинки... Таке відбувалось на 2 різних плеєрах, тому навряд чи можуть бути претензії до плеєра (як і до заліза, на якому було успішно переглянуто десятки інших релізів в т.ч. і з цього трекера, і по розміру до 4К і без жодних проблем). Тому схиляюсь до думки що саме ріп винуватець проблеми, але вже лінтьки було перекачувати інший, домучив вже як є.
А щодо самого фільму, то якщо коротко - чекав більшого ! Трейлер більше сподобався )) Частенько протягом фільму просто не розумієш логіки і послідовності подій, дуже вже хаотичне монтування сцен ускладнило сприйняття. Десь якусь одну репліку пропустиш і вже геть не розумієш наступних 10 хвилин що відбувається )) Не сказав би що фільм важко зрозуміти через його високоінтелектуальність чи глибокий філософський зміст, просто він плутано подається ! Типу оригінальність вирішили використати ))
Ну 5,5-6 можна дати, і то з натяжкою.

staf777 
Відео Гуртом - підтримка та поширення
Відео Гуртом - підтримка та поширення


З нами з: 16.11.16
Востаннє: 24.04.19
Повідомлень: 2284

2018-12-16 22:58  
Цитата:
Протягом всього фільму з періодичністю десь в 10-15 хв. картинка просто банально зупинялась

Фільм не дивився після Вашого комента подивився на перемотки фрагменти по 10 15 мінут наче все гуд

VitNi 
Свій


З нами з: 05.05.12
Востаннє: 24.04.19
Повідомлень: 121

2018-12-24 13:07  
Глибокий чудовий фільм ...
Але не для середнього розуму.
Відчуваю що він значно глибше ніж мені вдалося зрозуміти...

DIDJEYS 
Новенький


З нами з: 04.03.10
Востаннє: 24.04.19
Повідомлень: 6

2019-01-04 04:54  
Маразм......
Ваш часовий пояс: GMT + 2 Години

Нова тема   Відповісти