Хижак / The Predator (2018) Remux 1080p Ukr/Eng | Sub Ukr/Eng

Нові коментарі

Нова тема   Відповісти
Автор Повідомлення
staf777 
Відео Гуртом - підтримка та поширення
Відео Гуртом - підтримка та поширення


З нами з: 16.11.16
Востаннє: 19.09.20
Повідомлень: 4018

2018-12-12 09:17  
Хижак / The Predator (2018) Remux 1080p Ukr/Eng | Sub Ukr/Eng


автор постера: Ham_R
Альтернативні постери:


(автор Ham_R)




Жанр: бойовик, трилер, жахи, фантастика
Країна: США, Канада



Кінокомпанія: 20th Century Fox, Davis Entertainment, TSG Entertainment
Режисер: Шейн Блек
Актори: Бойд Голбрук, Олівія Манн, Треванте Роудс, Джейкоб Трембле, Кіґан-Майкл Кі, Стерлінг К. Браун, Томас Джейн, Елфі Аллен, Івонн Страховскі, Августо Агілера та інші

Сюжет:
Події розгортаються в наші дні. Колишній морський піхотинець Квінн Маккенна стикається з невідомою інопланетною істотою. Вона вороже налаштована до жителів Землі і слід було б якомога швидше реагувати на її появу. Але Маккенну ніхто не вірить. Тільки його малолітній син, який хворіє на аутизм, помічає істоту і навіть може з нею спілкуватися.


Тривалість: 01:47:36
Якість: Remux 1080p
Відео:
кодек:
розмір кадру: 1920x1080
бітрейт: 26,9 Mб/с

Аудіо # 1:
мова: українська
переклад: професійний дубльований | студія Postmodern
кодек: 5.1
бітрейт: 448 кб/с

Аудіо # 2:
мова: англійська
переклад: оригінал
кодек: -HD MA 7.1
бітрейт: 5095 кб/с

Субтитри # 1-2: (Forced, Full)
мова: українська
тип: програмні (м'які)
формат: *.srt

Субтитри # 3:
мова: англійська
тип: програмні (м'які)
формат: *.srt
Info
General
Unique ID : 185099512223809545894742469758086275773 (0x8B40DE8C4D2D69FC88D40DDF0E0BE2BD)
Complete name : G:\Фантастика\The Predator (2018) Remux 1080p [UKR][ENG][Hurtom].
Format :
Format version : Version 4 / Version 2
File size : 24.2 GiB
Duration : 1 h 46 min
Overall bit rate mode : Variable
Overall bit rate : 32.5 Mb/s
Movie name : The Predator (2018) Remux 1080p [UKR][ENG][Hurtom]
Encoded date : UTC 2018-12-26 13:56:11
Writing application : v24.0.0 ('Beyond The Pale') 64-bit
Writing library : libebml v1.3.6 + v1.4.9
Cover : Yes
Attachments : cover

Video
ID : 1
Format : AVC
Format/Info : Advanced Video Codec
Format profile : [email protected]
Format settings : CABAC / 2 Ref Frames
Format settings, CABAC : Yes
Format settings, ReFrames : 2 frames
Codec ID : V_MPEG4/ISO/AVC
Duration : 1 h 46 min
Bit rate mode : Variable
Bit rate : 26.9 Mb/s
Width : 1 920 pixels
Height : 1 080 pixels
Display aspect ratio : 16:9
Frame rate mode : Constant
Frame rate : 23.976 (24000/1001) FPS
Color space : YUV
Chroma subsampling : 4:2:0
Bit depth : 8 bits
Scan type : Progressive
Bits/(Pixel*Frame) : 0.541
Stream size : 20.1 GiB (83%)
Language : English
Default : Yes
Forced : No

Audio #1
ID : 2
Format : AC-3
Format/Info : Audio Coding 3
Codec ID : A_AC3
Duration : 1 h 46 min
Bit rate mode : Constant
Bit rate : 448 kb/s
Channel(s) : 6 channels
Channel positions : Front: L C R, Side: L R, LFE
Sampling rate : 48.0 kHz
Frame rate : 31.250 FPS (1536 SPF)
Bit depth : 16 bits
Compression mode : Lossy
Stream size : 343 MiB (1%)
Title : 5.1 @ 448 kbps
Language : Ukrainian
Service kind : Complete Main
Default : Yes
Forced : Yes

Audio #2
ID : 3
Format :
Format/Info : Digital Theater Systems
Format profile : MA / ES Matrix / Core
Codec ID : A_DTS
Duration : 1 h 46 min
Bit rate mode : Variable / Constant / Constant
Bit rate : 5 095 kb/s / 1 509 kb/s / 1 509 kb/s
Channel(s) : 8 channels / 7 channels / 6 channels
Channel positions : Front: L C R, Side: L R, Back: L R, LFE / Front: L C R, Side: L R, Back: C, LFE / Front: L C R, Side: L R, LFE
Sampling rate : 48.0 kHz
Frame rate : 93.750 FPS (512 SPF)
Bit depth : 24 bits
Compression mode : Lossless / Lossy / Lossy
Stream size : 3.81 GiB (16%)
Title : Original
Language : English
Default : No
Forced : No

Text #1
ID : 4
Format : UTF-8
Codec ID : S_TEXT/UTF8
Codec ID/Info : UTF-8 Plain Text
Duration : 1 h 45 min
Bit rate : 1 b/s
Count of elements : 22
Stream size : 1 001 Bytes (0%)
Title : Forced
Language : Ukrainian
Default : Yes
Forced : Yes

Text #2
ID : 5
Format : UTF-8
Codec ID : S_TEXT/UTF8
Codec ID/Info : UTF-8 Plain Text
Duration : 1 h 45 min
Bit rate : 68 b/s
Count of elements : 1271
Stream size : 53.4 KiB (0%)
Title : Full
Language : Ukrainian
Default : No
Forced : No

Text #3
ID : 6
Format : UTF-8
Codec ID : S_TEXT/UTF8
Codec ID/Info : UTF-8 Plain Text
Duration : 1 h 38 min
Bit rate : 49 b/s
Count of elements : 1366
Stream size : 35.6 KiB (0%)
Language : English
Default : No
Forced : No







За допомогу з субтитрами подяка пану EvGaS.

Джерело: &
Особиста оцінка: 8 - мені сподобалося
Хижак / The Predator (2018) Remux 1080p Ukr/Eng | Sub Ukr/Eng Хижак / The Predator (2018) Remux 1080p Ukr/Eng | Sub Ukr/Eng


Золотий реліз (завантажене не впливає на рейтинг)
 Трекер:    Зареєстрований   

Завантажити / скачати фільм українською



відео для новачків



 Зареєстрований:   2018-12-26 17:36
 Розмір:   24.24 GB 
 Оцінка фільму:   7.5/10 (Голосів: 34)
   
Інші релізи
   Хижак / The Predator (2018) 1080p H.265 Ukr/Eng | Sub Ukr/Eng -Star-Lord-  2 / 0   6.91 GB   2019-01-22 23:20 
   Хижак / The Predator (2018) 1080p Ukr/Eng | Sub Ukr/Eng staf777  3 / 0   11.77 GB   2018-12-26 11:14 
   Хижак / The Predator (2018) uafilm.tv  4 / 1   1.46 GB   2018-12-25 14:27 
   Хижак / The Predator (2018) 720p Ukr/Eng | Sub Ukr/Eng 11FrYkT  1 / 0   5.63 GB   2018-12-25 14:24 
   Хижак / The Predator (2018) Ukr/Eng | Sub Ukr/Eng 11FrYkT  4 / 0   2.18 GB   2018-12-25 14:22 
   Хижак / The Predator (2018) AVC Ukr/Eng | Sub Ukr/Eng 11FrYkT  4 / 0   2.11 GB   2018-12-25 14:22 
bot 
робот


З нами з: 30.09.07
Востаннє: 26.05.05
Повідомлень: 25546

2018-12-12 12:48  
Тему перенесено з Анонси релізів до форуму Фільми в HD


staf777

MakRA 
VIP


З нами з: 11.11.18
Востаннє: 19.09.20
Повідомлень: 1112

2018-12-12 13:28  
Тепер можна й подивитися. Дякую!
staf777 
Відео Гуртом - підтримка та поширення
Відео Гуртом - підтримка та поширення


З нами з: 16.11.16
Востаннє: 19.09.20
Повідомлень: 4018

2018-12-12 21:14  
MakRA
На здоров'я Happy

Oleksa9 
VIP


З нами з: 17.05.12
Востаннє: 19.09.20
Повідомлень: 412

2018-12-12 21:38  
От би ще попередні фільми про Хижака такою ж якістю Rolleyes (1)
MakRA 
VIP


З нами з: 11.11.18
Востаннє: 19.09.20
Повідомлень: 1112

2018-12-12 22:25  
Oleksa9
Так, а ще "Чужий проти Хижака" обидва ) Те що знаходив, якість так собі.

staf777 
Відео Гуртом - підтримка та поширення
Відео Гуртом - підтримка та поширення


З нами з: 16.11.16
Востаннє: 19.09.20
Повідомлень: 4018

2018-12-26 18:01  
Замінив доріжку з та додав українські субтитри

zloydark 
Попереджень: 1
Попереджень: 1 


З нами з: 11.05.15
Востаннє: 14.09.20
Повідомлень: 33

2018-12-27 20:08  
Сміття, шкода витраченого трафіку
staf777 
Відео Гуртом - підтримка та поширення
Відео Гуртом - підтримка та поширення


З нами з: 16.11.16
Востаннє: 19.09.20
Повідомлень: 4018

2018-12-27 23:30  
zloydark
Цитата:
Сміття, шкода витраченого трафіку

Який трафік - ремукси завжди золоті

O_omarella! 
Поважний учасник


З нами з: 14.06.13
Востаннє: 18.08.20
Повідомлень: 194

2019-01-02 22:29  
Ну навіщо так знущатись над "Хижаком"...крім Арні більше "Хижака" для мене не існує!
kkk111 
Новенький


З нами з: 12.11.12
Востаннє: 02.06.20
Повідомлень: 4

2019-01-08 20:46  
Почекаємо 4к
ВАВУНЯ 
VIP


З нами з: 30.06.15
Востаннє: 15.09.20
Повідомлень: 296

2019-01-15 19:17  
все більше і більше старих добрих франшиз опускаються до дитячого рівня...
із кожною частиною "Хижаки" стають гіршими.
1 і 2 частини - "еталон".
3 і 4 частини ("чужий/чужі проти хижака") - "може бути".
5 (ця) частина - "відстій".
шкода. Sad (1)
6/10

vas361 
Свій


З нами з: 07.10.16
Востаннє: 18.09.20
Повідомлень: 130

2019-01-17 12:28  
2\10
собаки промальовані як в дешевому мультику))

agamem 
Частий відвідувач


З нами з: 24.05.12
Востаннє: 18.09.20
Повідомлень: 32

2019-05-15 21:24  
Забагато "сімейності", пафосу і дивних вчинків для такого фільму.
Щось мені підказує, що світ коміксів поповнився черговим сепергероєм в костюмі. Не здивуюся, якщо вийде фільм, де усілякі супермени, "переламані" бетмени Тори та інші будуть доповнені цим костюмом - "захисники проти хижаків" Wide grin

[email protected] 
VIP


З нами з: 25.03.17
Востаннє: 13.09.20
Повідомлень: 551

2019-11-10 00:51  
Перша частина найкраща
Mr.Mykhailo 
Новенький


З нами з: 19.06.19
Востаннє: 21.05.20
Повідомлень: 5

2019-11-10 01:25  
[email protected] написано:
Перша частина найкраща
Так, а ще Хижаки / Predators (2010) непогано зняті
Hako 
Свій


З нами з: 01.02.12
Востаннє: 10.09.20
Повідомлень: 62

2020-01-28 01:49  
Господи, Боже мій! Ну були ж гарні фільми про хижака, а це що? І це не єдиний такий сиквел. Схоже Голівуд поставив перед собою мету перетворити всі кращі фільми минулого на гівно.
sumarmds 
Новенький


З нами з: 10.07.19
Востаннє: 03.09.20
Повідомлень: 12

2020-02-07 14:03  
Mr.Mykhailo написано:
Predators (2010)


Згоден, мені теж нормально зайшов.

sumarmds 
Новенький


З нами з: 10.07.19
Востаннє: 03.09.20
Повідомлень: 12

2020-02-08 23:57  
Подивився фільм, доволі непогано. Не розумію чому стільки негативу, "тільки Арні", "сміття" "вже не тей"... може у вас якісь очікування були інші? чи в поганому настрої дивились?
MakRA 
VIP


З нами з: 11.11.18
Востаннє: 19.09.20
Повідомлень: 1112

2020-02-09 00:39  
sumarmds
Та нормальний фільм! Мені колись і "Хижак 2" здавався не дуже після першого. Потім передивлявся і все добре. Фільм же не назвали "Хижак 3". Он "Хижаки" 2010 року взагалі зайшли шикарно, як окреме відгалуження сюжетної лінії всесвіту Чужих та Хижаків, погано, що не продовжили.

sumarmds 
Новенький


З нами з: 10.07.19
Востаннє: 03.09.20
Повідомлень: 12

2020-02-10 02:40  
MakRA написано:
погано, що не продовжили.

угу Sad (1)

Ваш часовий пояс: GMT + 2 Години

Нова тема   Відповісти