Страшилки 2: Привиди Хелловіна / Goosebumps 2: Haunted Halloween (2018) 1080p Ukr/Eng | Sub Ukr/Eng

Нові коментарі

Нова тема   Відповісти
Автор Повідомлення
staf777 
Попереджень: 1
Попереджень: 1 


З нами з: 16.11.16
Востаннє: 21.02.19
Повідомлень: 2152

2018-12-11 22:48  
Страшилки 2: Привиди Хелловіна / Goosebumps 2: Haunted Halloween (2018) 1080p Ukr/Eng | Sub Ukr/Eng



Жанр: жахи, комедія, пригоди, сімейний, фентезі
Країна: США



Кінокомпанія: Columbia Pictures Corporation,Original Film,Scholastic Entertainment
Режисер: Ері Сандел
Актори: Венді МакЛендон-Кові, Медісон Ісман, Джеремі Рей Тейлор, Кен Жонг, Кріс Парнелл, Шарі Хедлі

Сюжет:
Лише напередодні Геловіну трапляються… комедійні кошмари. Зі сторінок відомого бестселера сходить ціла армія страшидл та монстрів, і цього разу чудовиська захоплюють парк розваг «Хорорленд». Звичайним підліткам не залишається нічого, окрім як стиснути свою відвагу в кулак і звільнити місто від нечисті різного калібру!


Тривалість: 01:29:48
Якість: 1080p
Відео:
кодек:
розмір кадру: 1920х802
бітрейт: 10,1 Mб/с

Аудіо # 1:
мова: українська
переклад: професійний дубльований
кодек: 2.0
бітрейт: 160 кб/с

Аудіо # 2:
мова: англійська
переклад: оригінал
кодек: 5.1
бітрейт: 1509 кб/с

Субтитри:
мова: українська
тип: програмні (м'які)
формат: *.srt

Субтитри:
мова: англійська
тип: програмні (м'які)
формат: *.srt
Info
Код:
General
Unique ID                   : 32230031112913311221889477891236632124 (0x183F47384DF6C5E6666D5661556D163C)
Complete name               : P:\HD українською » Фільми в HD\Фентезі\Goosebumps 2 Haunted Halloween (2018) 1080p [UKR_ENG] [Hurtom].
Format                      :
Format version              : Version 4 / Version 2
File size                   : 7.38 GiB
Duration                    : 1 h 29 min
Overall bit rate            : 11.8 Mb/s
Movie name                  :  / Goosebumps 2 Haunted Halloween (2018) 1080p [UKR_ENG] [Hurtom]
Encoded date                : UTC 2019-01-06 17:27:30
Writing application         : v24.0.0 ('Beyond The Pale') 64-bit
Writing library             : libebml v1.3.6 + v1.4.9
Cover                       : Yes
Attachments                 : cover.jpg

Video
ID                          : 1
Format                      : AVC
Format/Info                 : Advanced Video Codec
Format profile              : [email protected]
Format settings             : CABAC / 5 Ref Frames
Format settings, CABAC      : Yes
Format settings, ReFrames   : 5 frames
Codec ID                    : V_MPEG4/ISO/AVC
Duration                    : 1 h 29 min
Bit rate                    : 10.1 Mb/s
Width                       : 1 920 pixels
Height                      : 802 pixels
Display aspect ratio        : 2.40:1
Frame rate mode             : Constant
Frame rate                  : 23.976 (24000/1001) FPS
Color space                 : YUV
Chroma subsampling          : 4:2:0
Bit depth                   : 8 bits
Scan type                   : Progressive
Bits/(Pixel*Frame)          : 0.274
Stream size                 : 6.33 GiB (86%)
Title                       : seleZen
Writing library             : core 148 r2705kMod 3f5ed56
Encoding settings           : cabac=1 / ref=5 / deblock=1:-2:-2 / analyse=0x3:0x133 / me=umh / subme=10 / psy=1 / fade_compensate=0.00 / psy_rd=1.05:0.07 / mixed_ref=1 / me_range=24 / chroma_me=1 / trellis=2 / 8x8dct=1 / cqm=0 / deadzone=21,11 / fast_pskip=0 / chroma_qp_offset=-3 / threads=12 / lookahead_threads=2 / sliced_threads=0 / nr=0 / decimate=0 / interlaced=0 / bluray_compat=0 / constrained_intra=0 / fgo=0 / bframes=8 / b_pyramid=2 / b_adapt=2 / b_bias=0 / direct=3 / weightb=1 / open_gop=0 / weightp=2 / keyint=240 / keyint_min=23 / scenecut=40 / intra_refresh=0 / rc_lookahead=50 / rc=2pass / mbtree=0 / bitrate=10100 / ratetol=1.0 / qcomp=0.60 / qpmin=0 / qpmax=51 / qpstep=4 / cplxblur=20.0 / qblur=0.5 / vbv_maxrate=50000 / vbv_bufsize=62500 / nal_hrd=none / filler=0 / ip_ratio=1.40 / pb_ratio=1.30 / aq=3:0.80
Language                    : English
Default                     : Yes
Forced                      : No

Audio #1
ID                          : 2
Format                      : AC-3
Format/Info                 : Audio Coding 3
Codec ID                    : A_AC3
Duration                    : 1 h 29 min
Bit rate mode               : Constant
Bit rate                    : 160 kb/s
Channel(s)                  : 2 channels
Channel positions           : Front: L R
Sampling rate               : 48.0 kHz
Frame rate                  : 31.250 FPS (1536 SPF)
Bit depth                   : 16 bits
Compression mode            : Lossy
Stream size                 : 103 MiB (1%)
Title                       : iTunes
Language                    : Ukrainian
Service kind                : Complete Main
Default                     : Yes
Forced                      : Yes

Audio #2
ID                          : 3
Format                      :
Format/Info                 : Digital Theater Systems
Codec ID                    : A_DTS
Duration                    : 1 h 29 min
Bit rate mode               : Constant
Bit rate                    : 1 509 kb/s
Channel(s)                  : 6 channels
Channel positions           : Front: L C R, Side: L R, LFE
Sampling rate               : 48.0 kHz
Frame rate                  : 93.750 FPS (512 SPF)
Bit depth                   : 24 bits
Compression mode            : Lossy
Stream size                 : 969 MiB (13%)
Title                       : Original
Language                    : English
Default                     : No
Forced                      : No

Text #1
ID                          : 4
Format                      : UTF-8
Codec ID                    : S_TEXT/UTF8
Codec ID/Info               : UTF-8 Plain Text
Duration                    : 1 h 28 min
Bit rate                    : 78 b/s
Count of elements           : 1125
Stream size                 : 50.7 KiB (0%)
Title                       : Full
Language                    : Ukrainian
Default                     : No
Forced                      : No

Text #2
ID                          : 5
Format                      : UTF-8
Codec ID                    : S_TEXT/UTF8
Codec ID/Info               : UTF-8 Plain Text
Duration                    : 1 h 27 min
Bit rate                    : 59 b/s
Count of elements           : 1277
Stream size                 : 38.0 KiB (0%)
Title                       : Full
Language                    : English
Default                     : No
Forced                      : No

Menu
00:00:00.000                : en:1
00:04:32.439                : en:2
00:11:15.174                : en:3
00:18:42.913                : en:4
00:21:40.632                : en:5
00:27:22.348                : en:6
00:32:36.119                : en:7
00:37:47.430                : en:8
00:45:13.917                : en:9
00:50:10.712                : en:10
00:56:16.702                : en:11
01:00:34.750                : en:12
01:05:27.125                : en:13
01:09:24.110                : en:14
01:14:36.921                : en:15
01:20:28.314                : en:16
Скрішоти



Джерело: & &
Особиста оцінка: 8 - мені сподобалося



 Трекер:    Зареєстрований   

Завантажити / скачати фільм українською



відео для новачків



 Зареєстрований:   2019-01-06 20:00
 Розмір:   7.38 GB 
 Оцінка фільму:   9.1/10 (Голосів: 42)
   
staf777 
Попереджень: 1
Попереджень: 1 


З нами з: 16.11.16
Востаннє: 21.02.19
Повідомлень: 2152

2018-12-12 20:40  
Піде разок можна глянути 
staf777 
Попереджень: 1
Попереджень: 1 


З нами з: 16.11.16
Востаннє: 21.02.19
Повідомлень: 2152

2018-12-25 09:32  
Замінив доріжку на та додав саби 
staf777 
Попереджень: 1
Попереджень: 1 


З нами з: 16.11.16
Востаннє: 21.02.19
Повідомлень: 2152

2019-01-06 20:03  
Оновив до 1080p
Ваш часовий пояс: GMT + 2 Години

Нова тема   Відповісти