Екс-махіна (Із машини) / Ex Machina (2015) 1080p H.265 2хUkr/Eng | Sub Ukr/Eng

Нові коментарі

Нова тема   Відповісти
Автор Повідомлення
Anonymous 







2018-12-11 23:17  
Екс-махіна (Із машини) / Ex Machina (2015) 1080p H.265 2хUkr/Eng | Sub Ukr/Eng

Екс-махіна (Із машини) / Ex Machina (2015) 1080p H.265 2хUkr/Eng | Sub Ukr/Eng


Жанр: драма, фантастика
Країна: Великобританія
Кінокомпанія: DNA Films, Film4
Режисер: Алекс Ґарленд / Alex Garland
Актори: Алісія Вікандер / Alicia Vikander, Донал Ґлісон / Domhnall Gleeson, Оскар Айзек / Oscar Isaac, Челсі Лі / Chelsea Li, Еві Рей / Evie Wray, Соноя Мізуно / Sonoya Mizuno, Корі Джонсон / Corey Johnson та інші

Сюжет:
Десь у недалекому майбутньому… Калеб працює програмістом у найбільшій в світі інтернет-компанії. Несподівано він стає переможцем конкурсу, де приз – тиждень у віддаленому гірському будиночку генерального директора. Але хлопець, ще не усвідомлює, що став частиною дивного і захопливого дослідження, в якому він повинен взаємодіяти з роботом у тілі прекрасної дівчини.

Тривалість: 01:48:00
Якість:
Відео:
кодек: H.265 (HEVC)
розмір кадру: 1920 x 804
бітрейт: 4829 кб/с
бітова глибина: 10 біт
Увага! Перед завантаженням переконайтесь, що ваш пристрій відтворення (та/або ПЗ) підтримує H.265 (HEVC)

Аудіо # 1:
мова: українська
переклад: багатоголосий закадровий
кодек: AC-3 2.0
бітрейт: 192 кб/с

Аудіо # 2:
мова: українська
переклад: професійний дубльований | студія LeDoyen | Mic (якісний)
кодек: AC-3 2.0
бітрейт: 192 кб/с

Аудіо # 3:
мова: англійська
переклад: оригінал
кодек: AC-3 5.1
бітрейт: 448 кб/с

Субтитри # 1:
мова: українська (Full),
тип: програмні (м'які)
формат: *.srt

Субтитри # 2:
мова: англійська (Full),
тип: програмні (м'які)
формат: *.srt


Info
Код:
General
Unique ID                                : 119630297125954801616500157235096672447 (0x59FFF507B8E3FFBB22CC8DDAD70758BF)
Complete name                            : D:\Video\Ex Machina (2015) 1080p H.265 [2xUKR_ENG].
Format                                   :
Format version                           : Version 4 / Version 2
File size                                : 4.27 GiB
Duration                                 : 1 h 48 min
Overall bit rate                         : 5 664 kb/s
Movie name                               : Ex Machina (2015)
Encoded date                             : UTC 2018-12-11 20:07:25
Writing application                      : v20.0.0 ('I Am The Sun') 32-bit
Writing library                          : libebml v1.3.5 + v1.4.8
Cover                                    : Yes
Attachments                              : cover.jpeg

Video
ID                                       : 1
Format                                   : HEVC
Format/Info                              : High Efficiency Video Coding
Format profile                           : Main [email protected]@Main
Codec ID                                 : V_MPEGH/ISO/HEVC
Duration                                 : 1 h 48 min
Bit rate                                 : 4 829 kb/s
Width                                    : 1 920 pixels
Height                                   : 804 pixels
Display aspect ratio                     : 2.40:1
Frame rate mode                          : Constant
Frame rate                               : 23.976 (24000/1001) FPS
Color space                              : YUV
Chroma subsampling                       : 4:2:0
Bit depth                                : 10 bits
Bits/(Pixel*Frame)                       : 0.130
Stream size                              : 3.64 GiB (85%)
Title                                    : Ex Machina (2015)
Writing library                          : x265 2.9+9-f74003e88622:[Windows][GCC 8.2.0][64 bit] 10bit
Encoding settings                        : cpuid=1111039 / frame-threads=3 / numa-pools=8 / wpp / no-pmode / no-pme / no-psnr / no-ssim / log-level=2 / input-csp=1 / input-res=1920x804 / interlace=0 / total-frames=155385 / level-idc=0 / high-tier=1 / uhd-bd=0 / ref=4 / no-allow-non-conformance / no-repeat-headers / annexb / no-aud / no-hrd / info / hash=0 / no-temporal-layers / open-gop / min-keyint=23 / keyint=250 / gop-lookahead=0 / bframes=8 / b-adapt=2 / b-pyramid / bframe-bias=0 / rc-lookahead=80 / lookahead-slices=4 / scenecut=40 / radl=0 / no-intra-refresh / ctu=64 / min-cu-size=8 / no-rect / no-amp / max-tu-size=32 / tu-inter-depth=1 / tu-intra-depth=1 / limit-tu=0 / rdoq-level=2 / dynamic-rd=0.00 / no-ssim-rd / signhide / no-tskip / nr-intra=0 / nr-inter=0 / no-constrained-intra / no-strong-intra-smoothing / max-merge=3 / limit-refs=3 / limit-modes / me=3 / subme=5 / merange=57 / temporal-mvp / weightp / no-weightb / no-analyze-src-pics / deblock=-3:-3 / no-sao / no-sao-non-deblock / rd=4 / no-early-skip / rskip / no-fast-intra / no-tskip-fast / no-cu-lossless / no-b-intra / no-splitrd-skip / rdpenalty=0 / psy-rd=2.00 / psy-rdoq=1.00 / no-rd-refine / no-lossless / cbqpoffs=0 / crqpoffs=0 / rc=crf / crf=18.0 / qcomp=0.60 / qpstep=4 / stats-write=0 / stats-read=0 / ipratio=1.40 / pbratio=1.30 / aq-mode=3 / aq-strength=1.00 / cutree / zone-count=0 / no-strict-cbr / qg-size=32 / no-rc-grain / qpmax=69 / qpmin=0 / no-const-vbv / sar=0 / overscan=0 / videoformat=5 / range=0 / colorprim=2 / transfer=2 / colormatrix=2 / chromaloc=0 / display-window=0 / max-cll=0,0 / min-luma=0 / max-luma=1023 / log2-max-poc-lsb=8 / vui-timing-info / vui-hrd-info / slices=1 / no-opt-qp-pps / no-opt-ref-list-length-pps / no-multi-pass-opt-rps / scenecut-bias=0.05 / no-opt-cu-delta-qp / no-aq-motion / no-hdr / no-hdr-opt / no-dhdr10-opt / no-idr-recovery-sei / analysis-reuse-level=5 / scale-factor=0 / refine-intra=0 / refine-inter=0 / refine-mv=0 / no-limit-sao / ctu-info=0 / no-lowpass-dct / refine-mv-type=0 / copy-pic=1 / max-ausize-factor=1.0 / no-dynamic-refine / no-single-sei
Default                                  : Yes
Forced                                   : No

Audio #1
ID                                       : 2
Format                                   : AC-3
Format/Info                              : Audio Coding 3
Codec ID                                 : A_AC3
Duration                                 : 1 h 48 min
Bit rate mode                            : Constant
Bit rate                                 : 192 kb/s
Channel(s)                               : 2 channels
Channel positions                        : Front: L R
Sampling rate                            : 48.0 kHz
Frame rate                               : 31.250 FPS (1536 SPF)
Bit depth                                : 16 bits
Compression mode                         : Lossy
Stream size                              : 148 MiB (3%)
Title                                    : БЗ - Cine+
Language                                 : Ukrainian
Service kind                             : Complete Main
Default                                  : Yes
Forced                                   : Yes

Audio #2
ID                                       : 3
Format                                   : AC-3
Format/Info                              : Audio Coding 3
Codec ID                                 : A_AC3
Duration                                 : 1 h 48 min
Bit rate mode                            : Constant
Bit rate                                 : 192 kb/s
Channel(s)                               : 2 channels
Channel positions                        : Front: L R
Sampling rate                            : 48.0 kHz
Frame rate                               : 31.250 FPS (1536 SPF)
Bit depth                                : 16 bits
Compression mode                         : Lossy
Stream size                              : 148 MiB (3%)
Title                                    : ПД - Mic
Language                                 : Ukrainian
Service kind                             : Complete Main
Default                                  : No
Forced                                   : No

Audio #3
ID                                       : 4
Format                                   : AC-3
Format/Info                              : Audio Coding 3
Codec ID                                 : A_AC3
Duration                                 : 1 h 48 min
Bit rate mode                            : Constant
Bit rate                                 : 448 kb/s
Channel(s)                               : 6 channels
Channel positions                        : Front: L C R, Side: L R, LFE
Sampling rate                            : 48.0 kHz
Frame rate                               : 31.250 FPS (1536 SPF)
Bit depth                                : 16 bits
Compression mode                         : Lossy
Stream size                              : 346 MiB (8%)
Title                                    : Original
Language                                 : English
Service kind                             : Complete Main
Default                                  : No
Forced                                   : No

Text #1
ID                                       : 5
Format                                   : UTF-8
Codec ID                                 : S_TEXT/UTF8
Codec ID/Info                            : UTF-8 Plain Text
Duration                                 : 1 h 46 min
Bit rate                                 : 67 b/s
Count of elements                        : 1069
Stream size                              : 52.8 KiB (0%)
Title                                    : Full
Language                                 : Ukrainian
Default                                  : Yes
Forced                                   : No

Text #2
ID                                       : 6
Format                                   : UTF-8
Codec ID                                 : S_TEXT/UTF8
Codec ID/Info                            : UTF-8 Plain Text
Duration                                 : 1 h 38 min
Bit rate                                 : 48 b/s
Count of elements                        : 1248
Stream size                              : 34.7 KiB (0%)
Title                                    : Full
Language                                 : English
Default                                  : No
Forced                                   : No

Menu
00:00:00.000                             : en:Chapter 1
00:04:34.941                             : en:Chapter 2
00:11:16.634                             : en:Chapter 3
00:15:08.157                             : en:Chapter 4
00:23:38.750                             : en:Chapter 5
00:31:57.999                             : en:Chapter 6
00:36:05.162                             : en:Chapter 7
00:40:26.757                             : en:Chapter 8
00:45:56.378                             : en:Chapter 9
00:53:28.955                             : en:Chapter 10
01:00:26.080                             : en:Chapter 11
01:04:01.254                             : en:Chapter 12
01:07:19.076                             : en:Chapter 13
01:13:22.022                             : en:Chapter 14
01:16:56.111                             : en:Chapter 15
01:21:36.516                             : en:Chapter 16
01:27:36.834                             : en:Chapter 17
01:32:54.151                             : en:Chapter 18
01:38:51.008                             : en:Chapter 19
01:42:26.932                             : en:Credits
Світлини




Джерело:
Особиста оцінка: 7 - моїй подрузі не сподобалося


>>> Усі мої релізи <<<



 Трекер:    Зареєстрований   

Завантажити / скачати фільм українською



відео для новачків



 Зареєстрований:   2018-12-11 23:17
 Розмір:   4.27 GB 
 Оцінка фільму:   8.7/10 (Голосів: 9)
   
Інші релізи
vash1 
Поважний учасник


З нами з: 16.03.16
Востаннє: 16.10.19
Повідомлень: 209

2018-12-12 18:31  
Чудово! Оновлю у колекції.
0mage0 
VIP


З нами з: 06.10.15
Востаннє: 17.10.19
Повідомлень: 525

2019-04-09 21:30  
Трошки нуднувато, але загалом норм.
Не зовсім зрозуміло, чому в кінці, коли Ейва вже втекла, вимкнулася електрика, і чому при цьому не відчинилися всі двері, адже Калеб перепрограмував все так, щоб двері відчинялися коли зникає струм. Ну і вочевидь, струм ніколи не зникав повністю, адже комп'ютер, що оголошував про те, що зникла електрика, працював.

Ваш часовий пояс: GMT + 2 Години

Нова тема   Відповісти