Тупий та ще Тупіший [Розширена версія] / Dumb & Dumber [Unrated] (1994) AVC 2xUkr/Eng | Sub Eng

Нові коментарі

Нова тема   Відповісти
Автор Повідомлення
staf777 
Відео Гуртом - підтримка та поширення
Відео Гуртом - підтримка та поширення


З нами з: 16.11.16
Востаннє: 15.12.19
Повідомлень: 3071

2018-12-11 21:57  
Тупий та ще Тупіший [Розширена версія] / Dumb & Dumber [Unrated] (1994) AVC 2xUkr/Eng | Sub Eng

Тупий та ще Тупіший [Розширена версія] / Dumb & Dumber [Unrated] (1994) AVC 2xUkr/Eng | Sub Eng


Жанр: комедія
Країна: США



Кінокомпанія: New Line Cinema
Режисер: Боббі та Піттер Фарреллі
Актори: Джим Керрі, Джеф Деніелс, Лорен Холлі, Майк Старр, Карен Даффи, Чарльз Роккет, Вікторія Роуелл, Джо Бейкер, Хенк Брандт, Тері Гаррі та інші

Сюжет:
Два повних придурка, Лойд Крісмас і Харрі Данн намагаються відшукати красиву дівчину Мері Суонсон, щоб вручити їй загублений дипломат. Придурки не знають, що Мері впустила його спеціально, як викуп за її чоловіка. Всередині дипломата лежить кругленька суму, про яку вони навіть і не здогадуються.
На волохатій машині унікальної марки «Вівчарка» двоє ідіотів перетинають Америку від Род-Айленд до Колорадо, де і знаходять чарівну Мері, в яку Ллойд уже встиг втюритися по "самі помідори".


Тривалість: 01:52:49
Якість: AVC
Відео:
кодек:
розмір кадру: 1024x576
бітрейт: 1822 кб/с

Аудіо # 1:
мова: українська
переклад: багатоголосий закадровий
кодек: 2.0
бітрейт: 192 кб/с

Аудіо # 2:
мова: українська
переклад: двохголосий закадровий
кодек: 2.0
бітрейт: 192 кб/с

Аудіо # 3:
мова: англійська
переклад: оригінал
кодек: 5.1
бітрейт: 384 кб/с

Субтитри: (до моментів без перекладу)
мова: українська
тип: програмні (м'які)
формат: *.srt

Субтитри:
мова: англійська
тип: програмні (м'які)
формат: *.srt






MI
General
Unique ID : 271909851712011216258736151002798086478 (0xCC8FEEBC29285BD2A0F21332439BD94E)
Complete name : N:\Фільми AVC\Комедія\Dumb & Dumber [Unrated Edition] (1994) [2xUkr,Eng sub.Eng] AVC [Hurtom].
Format :
Format version : Version 4 / Version 2
File size : 2.04 GiB
Duration : 1 h 52 min
Overall bit rate : 2 591 kb/s
Movie name : Dumb & Dumber [Unrated Edition] (1994) [2xUkr,Eng sub.Eng] AVC [Hurtom]
Encoded date : UTC 2018-12-13 10:09:32
Writing application : v24.0.0 ('Beyond The Pale') 64-bit
Writing library : libebml v1.3.6 + v1.4.9
Cover : Yes
Attachments : cover.jpg / logfile.log

Video
ID : 1
Format : AVC
Format/Info : Advanced Video Codec
Format profile : [email protected]
Format settings : CABAC / 9 Ref Frames
Format settings, CABAC : Yes
Format settings, ReFrames : 9 frames
Codec ID : V_MPEG4/ISO/AVC
Duration : 1 h 52 min
Bit rate : 1 822 kb/s
Width : 1 024 pixels
Height : 576 pixels
Display aspect ratio : 16:9
Frame rate mode : Constant
Frame rate : 23.976 (24000/1001) FPS
Color space : YUV
Chroma subsampling : 4:2:0
Bit depth : 8 bits
Scan type : Progressive
Bits/(Pixel*Frame) : 0.129
Stream size : 1.44 GiB (70%)
Title : Rip by 0ptimus
Writing library : core 133 r2334 a3ac64b
Encoding settings : cabac=1 / ref=9 / deblock=1:-3:-3 / analyse=0x3:0x113 / me=umh / subme=10 / psy=1 / psy_rd=1.00:0.20 / mixed_ref=1 / me_range=32 / chroma_me=1 / trellis=2 / 8x8dct=1 / cqm=0 / deadzone=21,11 / fast_pskip=0 / chroma_qp_offset=-3 / threads=4 / lookahead_threads=1 / sliced_threads=0 / nr=0 / decimate=0 / interlaced=0 / bluray_compat=0 / constrained_intra=0 / bframes=8 / b_pyramid=2 / b_adapt=2 / b_bias=0 / direct=3 / weightb=1 / open_gop=0 / weightp=2 / keyint=240 / keyint_min=23 / scenecut=40 / intra_refresh=0 / rc_lookahead=40 / rc=2pass / mbtree=0 / bitrate=1822 / ratetol=1.0 / qcomp=0.60 / qpmin=0 / qpmax=69 / qpstep=4 / cplxblur=20.0 / qblur=0.5 / vbv_maxrate=50000 / vbv_bufsize=50000 / nal_hrd=none / ip_ratio=1.40 / pb_ratio=1.30 / aq=1:1.00
Language : English
Default : Yes
Forced : Yes

Audio #1
ID : 2
Format : AC-3
Format/Info : Audio Coding 3
Codec ID : A_AC3
Duration : 1 h 52 min
Bit rate mode : Constant
Bit rate : 192 kb/s
Channel(s) : 2 channels
Channel positions : Front: L R
Sampling rate : 48.0 kHz
Frame rate : 31.250 FPS (1536 SPF)
Bit depth : 16 bits
Compression mode : Lossy
Stream size : 155 MiB (7%)
Title : багатоголосий закадровий
Language : Ukrainian
Service kind : Complete Main
Default : Yes
Forced : Yes

Audio #2
ID : 3
Format : AC-3
Format/Info : Audio Coding 3
Codec ID : A_AC3
Duration : 1 h 52 min
Bit rate mode : Constant
Bit rate : 192 kb/s
Channel(s) : 2 channels
Channel positions : Front: L R
Sampling rate : 48.0 kHz
Frame rate : 31.250 FPS (1536 SPF)
Bit depth : 16 bits
Compression mode : Lossy
Stream size : 155 MiB (7%)
Title : 1+1
Language : Ukrainian
Service kind : Complete Main
Default : No
Forced : No

Audio #3
ID : 4
Format : AC-3
Format/Info : Audio Coding 3
Codec ID : A_AC3
Duration : 1 h 52 min
Bit rate mode : Constant
Bit rate : 384 kb/s
Channel(s) : 6 channels
Channel positions : Front: L C R, Side: L R, LFE
Sampling rate : 48.0 kHz
Frame rate : 31.250 FPS (1536 SPF)
Bit depth : 16 bits
Compression mode : Lossy
Stream size : 310 MiB (15%)
Title : 5.1 @ 384 kbps
Language : English
Service kind : Complete Main
Default : No
Forced : No

Text #1
ID : 5
Format : UTF-8
Codec ID : S_TEXT/UTF8
Codec ID/Info : UTF-8 Plain Text
Duration : 1 h 25 min
Bit rate : 5 b/s
Count of elements : 81
Stream size : 3.58 KiB (0%)
Language : Ukrainian
Default : Yes
Forced : Yes

Text #2
ID : 6
Format : UTF-8
Codec ID : S_TEXT/UTF8
Codec ID/Info : UTF-8 Plain Text
Duration : 1 h 47 min
Bit rate : 58 b/s
Count of elements : 1397
Stream size : 45.7 KiB (0%)
Title : SDH
Language : English
Default : No
Forced : No

Menu
00:00:00.000 : en:Main Title
00:03:43.765 : en:Love at First Sight
00:07:02.338 : en:A Tearful Goodbye
00:10:34.508 : en:Danger at the Door
00:15:58.123 : en:Sick and Tired
00:19:07.771 : en:Road to Aspen
00:21:52.602 : en:Truck Stop Trouble
00:26:19.286 : en:Whiz Kids
00:31:06.739 : en:Lloyd's Aspen Dream
00:35:39.262 : en:Holed Up in a Love Nest
00:40:09.782 : en:The Hitcher
00:43:38.616 : en:Gassing Up
00:48:59.770 : en:Welcome to Nebraska
00:55:16.604 : en:In Search of Mary
01:01:45.785 : en:Gala Preparations
01:06:22.478 : en:The Snow Owl Benefit
01:09:01.637 : en:Harry Meets Mary
01:18:49.891 : en:It's A Date
01:26:00.989 : en:Betrayed
01:28:43.651 : en:A Regular Guy
01:32:33.339 : en:Lloyd Makes His Move
01:38:50.966 : en:Under the Gun
01:45:41.001 : en:Missing the Bus
01:47:44.666 : en:End Credits
01:52:47.552 : en:Chapter 24

Джерело: &
Особиста оцінка: 10 - Золота класика
ЗАЛИШАЙТЕСЬ ЯКОМОГА ДОВШЕ НА РОЗДАЧІ!

СКАЧАВ САМ - ДАЙ СКАЧАТИ ІНШИМ



Срібний реліз (на рейтинг впливає 50% завантаженого)
 Трекер:    Зареєстрований   

Завантажити / скачати фільм українською



відео для новачків



 Зареєстрований:   2018-12-13 13:13
 Розмір:   2.04 GB 
 Оцінка фільму:   9.3/10 (Голосів: 15)
   
bot 
робот


З нами з: 30.09.07
Востаннє: 26.05.05
Повідомлень: 22655

2018-12-13 13:13  
Тему перенесено з Анонси релізів до форуму Фільми


staf777

Ваш часовий пояс: GMT + 2 Години

Нова тема   Відповісти