LEGO Jurassic World: The Indominus Escape / Лего Світ Юрського періоду. Втеча Індомінуса (2016) 1080p Ukr/Eng | Sub Eng

Нові коментарі

Нова тема   Відповісти
Автор Повідомлення
sergiyko.5 
Забанено
Забанено


З нами з: 25.02.16
Востаннє: 29.10.20
Повідомлень: 3648

2018-12-11 14:48  
LEGO Jurassic World: The Indominus Escape / Лего Світ Юрського періоду. Втеча Індомінуса (2016) 1080p Ukr/Eng | Sub Eng

LEGO Jurassic World: The Indominus Escape / Лего Світ Юрського періоду. Втеча Індомінуса (2016) 1080p Ukr/Eng | Sub Eng

Жанр: анімація, пригоди, комедія, сімейний
Країна: США
Кінокомпанія: LEGO Group, The, NBC Universal Brand Development (NBCUBD), Pure Imagination Studios
Режисер: Майкл Д. Блэк

Сюжет:
З вини не надто досвідченого пілота Саймона Масрані в парку атракціонів відбувається справжня катастрофа - руйнується одна з головних споруд! Вирішувати питання береться менеджер на ім'я Клер. Після недовгих роздумів вихід зі складної ситуації знайдений - завдяки генним експериментам доктора на ім'я Ву, на світ з'являється унікальний динозавр Індомінус Рекс. Величезна тварина найбільше любить хот-доги і саме від нього очікують допомоги в ремонті зруйнованого Саймоном сектора. Ось тільки Рекс виявляється жахливо голодний! Він з'їдає всі сосиски і булочки, які йому тільки вдається відшукати, а потім вирушає шукати прожиток за перед парку. Тепер все залежить від спритності дресирувальника Оуена, який якраз спеціалізується на динозаврах. Чи вдасться йому відшукати втікача Рекса і повернути його до парку?




Тривалість: 00:24:37
Якість:

Відео: кодек: розмір кадру: 1920 х 1080 бітрейт: 5800 кб/с
Аудіо # 1: мова: українська переклад: професійний дубльований кодек: 2.0 бітрейт: 192 кб/с
Озвучення:
Аудіо # 2: мова: англійська переклад: оригінал кодек: 5.1 бітрейт: 384 кб/с
Аудіо # 3: мова: англійська переклад: коментарі кодек: 5.1 бітрейт: 384 кб/с
Субтитри: мова: англійська тип: програмні (м'які) формат: *.srt
Про файл
General
Unique ID : 126369476354661584840174773971520495134 (0x5F11E03826AE51051A782D83EA969E1E)
Complete name : G:\Torrents2\MULT\Lego Jurassic World.The Indominus Escape.2016.1080p..Ukr.Eng.
Format :
Format version : Version 4
File size : 1.16 GiB
Duration : 24 min 37 s
Overall bit rate mode : Variable
Overall bit rate : 6 747 kb/s
Movie name : Lego Jurassic World: The Indominus Escape 2016 by sergiyko
Encoded date : UTC 2018-12-11 12:46:37
Writing application : v29.0.0 ('Like It Or Not') 64-bit
Writing library : libebml v1.3.6 + v1.4.9
Cover : Yes
Attachments : cover.jpg

Video
ID : 1
Format : AVC
Format/Info : Advanced Video Codec
Format profile : [email protected]
Format settings : CABAC / 3 Ref Frames
Format settings, CABAC : Yes
Format settings, ReFrames : 3 frames
Codec ID : V_MPEG4/ISO/AVC
Duration : 24 min 36 s
Bit rate mode : Variable
Bit rate : 5 800 kb/s
Maximum bit rate : 8 700 kb/s
Width : 1 920 pixels
Height : 1 080 pixels
Display aspect ratio : 16:9
Frame rate mode : Constant
Frame rate : 23.976 (24000/1001) FPS
Color space : YUV
Chroma subsampling : 4:2:0
Bit depth : 8 bits
Scan type : Progressive
Bits/(Pixel*Frame) : 0.117
Stream size : 1 019 MiB (86%)
Title : Lego Jurassic World: The Indominus Escape 2016
Writing library : core 118
Encoding settings : cabac=1 / ref=3 / deblock=1:0:0 / analyse=0x1:0x111 / me=umh / subme=10 / psy=1 / psy_rd=1.00:0.00 / mixed_ref=1 / me_range=24 / chroma_me=1 / trellis=2 / 8x8dct=0 / cqm=0 / deadzone=21,11 / fast_pskip=1 / chroma_qp_offset=-2 / threads=6 / sliced_threads=0 / nr=0 / decimate=1 / interlaced=0 / bluray_compat=0 / constrained_intra=0 / bframes=2 / b_pyramid=0 / b_adapt=2 / b_bias=0 / direct=3 / weightb=1 / open_gop=0 / weightp=2 / keyint=48 / keyint_min=25 / scenecut=0 / intra_refresh=0 / rc_lookahead=0 / rc=2pass / mbtree=1 / bitrate=5800 / ratetol=1.0 / qcomp=0.50 / qpmin=6 / qpmax=51 / qpstep=4 / cplxblur=20.0 / qblur=0.5 / vbv_maxrate=8700 / vbv_bufsize=11600 / nal_hrd=vbr / ip_ratio=1.40 / aq=1:1.00
Language : English
Default : Yes
Forced : No

Audio #1
ID : 2
Format : AC-3
Format/Info : Audio Coding 3
Commercial name : Dolby Digital
Codec ID : A_AC3
Duration : 24 min 37 s
Bit rate mode : Constant
Bit rate : 192 kb/s
Channel(s) : 2 channels
Channel layout : L R
Sampling rate : 48.0 kHz
Frame rate : 31.250 FPS (1536 SPF)
Bit depth : 16 bits
Compression mode : Lossy
Stream size : 33.8 MiB (3%)
Title : DUB 2.0ch | ПлюсПлюс
Language : Ukrainian
Service kind : Complete Main
Default : Yes
Forced : Yes

Audio #2
ID : 3
Format : AC-3
Format/Info : Audio Coding 3
Commercial name : Dolby Digital
Codec ID : A_AC3
Duration : 24 min 37 s
Bit rate mode : Constant
Bit rate : 384 kb/s
Channel(s) : 6 channels
Channel layout : L R C LFE Ls Rs
Sampling rate : 48.0 kHz
Frame rate : 31.250 FPS (1536 SPF)
Bit depth : 16 bits
Compression mode : Lossy
Stream size : 67.6 MiB (6%)
Title : Original 5.1ch
Language : English
Service kind : Complete Main
Default : No
Forced : No

Audio #3
ID : 4
Format : AC-3
Format/Info : Audio Coding 3
Commercial name : Dolby Digital
Codec ID : A_AC3
Duration : 24 min 37 s
Bit rate mode : Constant
Bit rate : 384 kb/s
Channel(s) : 6 channels
Channel layout : L R C LFE Ls Rs
Sampling rate : 48.0 kHz
Frame rate : 31.250 FPS (1536 SPF)
Bit depth : 16 bits
Compression mode : Lossy
Stream size : 67.6 MiB (6%)
Title : Descriptive 5.1ch
Language : English
Service kind : Complete Main
Default : No
Forced : No

Text
ID : 5
Format : UTF-8
Codec ID : S_TEXT/UTF8
Codec ID/Info : UTF-8 Plain Text
Duration : 23 min 55 s
Bit rate : 64 b/s
Count of elements : 368
Stream size : 11.3 KiB (0%)
Title : SDH
Language : English
Default : No
Forced : No
Скріншоти:



Запис/зведення: sergiyko


 Трекер:    Зареєстрований   

Завантажити / скачати мультфільм українською



відео для новачків



 Зареєстрований:   2018-12-11 17:28
 Розмір:   1.16 GB 
 Оцінка мультфільму:   9.4/10 (Голосів: 17)
   
sergiyko.5 
Забанено
Забанено


З нами з: 25.02.16
Востаннє: 29.10.20
Повідомлень: 3648

2018-12-11 20:09  


Є такі кнопки, які допоможуть розповсюджувати український контент. Кожен повинен натиснути, інакше не питайте, чому на ютубі все російською.

jaral 
Забанено
Забанено


З нами з: 18.10.07
Востаннє: 21.01.20
Повідомлень: 973

2018-12-12 04:31  
sergiyko.5 написано:
чому на ютубі все російською.
Іноземною мовою російською! Бо у ворогів є за океаном та у Європі компанії та кантори, які все проукраїнське й україномовне та під приводом пропаганди ненависті, порушення авторських прав ітд. відслідковують, наприклад відосики і все що містить український звук стирають. Аналогічний іноземномовний контент ніхто масово не переслідує та не стирають.
Ваш часовий пояс: GMT + 2 Години

Нова тема   Відповісти