Повертайся до мене / Return to Me (2000) 720p 2xUkr/Eng | Sub Eng

Нові коментарі

Нова тема   Відповісти
Автор Повідомлення
Anonymous 







2018-12-11 08:53  
Повертайся до мене / Return to Me (2000) 720p 2xUkr/Eng | Sub Eng

Повертайся до мене / Return to Me (2000) 720p 2xUkr/Eng | Sub Eng


Жанр: драма, романтичний, комедія
Країна: США



Кінокомпанія: JLT Productions, Metro-Goldwyn-Mayer
Режисер: Бонні Хант
Актори: Девід Духовни, Мінні Драйвер, Керрол О'Коннор, Роберт Лоджіа, Бонні Хант, Девід Алан Грір, Джоелі Річардсон, Джеймс Белуші

Сюжет:
Хто міг знати, що, замовивши чергову страву, він одержить найкращий делікатес в своєму житті? Девід Духовни і Мінні Драйвер як ніколи чарівні, чуттєві і іскрометні в цій історії двох людей, які випадково зустрічаються, але не випадково закохуються. Потрібно немало зусиль, щоб примусити Боба призначити «побачення всліпу». І, проте, воно відбулося в простенькій ірландсько-італійській забігайлівці. Він був буквально зачарований, але не пані, з якою було призначено побачення, а дотепністю офіціантки Грейс. Не без допомоги дідуся, стурбованого заміжжям внучки, Грейс і Боб зустрічаються. Їх відносини розцвітають, і здається, що у наших закоханих голубків все буде добре, поки не спливає неймовірна правда, така, що легко може розбити їх серця назавжди...


Тривалість: 01:55:56
Якість: 720p
Відео:
кодек:
розмір кадру: 1280×694
бітрейт: 7277 кб/с

Аудіо # 1:
мова: українська
переклад: двоголосий закадровий
кодек: 2.0
бітрейт: 192 кб/с

Аудіо # 2:
мова: українська
переклад: багатоголосий закадровий
кодек: 2.0
бітрейт: 192 кб/с

Аудіо # 3:
мова: англійська
переклад: оригінал
кодек: 5.1
бітрейт: 640 кб/с

Аудіо # 4:
мова: англійська
переклад: коментарі режисерки Бонні Хант / Bonnie Hunt та автора сценарія Дона Лейка / Don Lake
кодек: 2.0
бітрейт: 81.6 кб/с

Субтитри:
мова: англійська
тип: програмні (м'які)
формат: *.srt
Info
General
Unique ID : 246031797851542639381890197270817730164 (0xB918002C42D9B7FC9C41036BB250EE74)
Format :
Format version : Version 4 / Version 2
File size : 6.91 GiB
Duration : 1 h 55 min
Overall bit rate : 8 532 kb/s
Encoded date : UTC 2018-12-11 05:47:08
Writing application : v6.1.0 ('Old Devil') built on Mar 4 2013 09:10:42
Writing library : libebml v1.3.0 + v1.4.0

Video
ID : 1
Format : AVC
Format/Info : Advanced Video Codec
Format profile : [email protected]
Format settings : CABAC / 9 Ref Frames
Format settings, CABAC : Yes
Format settings, ReFrames : 9 frames
Codec ID : V_MPEG4/ISO/AVC
Duration : 1 h 55 min
Width : 1 280 pixels
Height : 694 pixels
Display aspect ratio : 1.85:1
Frame rate mode : Constant
Frame rate : 23.976 (24000/1001) FPS
Color space : YUV
Chroma subsampling : 4:2:0
Bit depth : 8 bits
Scan type : Progressive
Writing library : core 146 r0+2584 6cf85c6 t_mod_Custom [[email protected] ]
Encoding settings : cabac=1 / ref=9 / deblock=1:-3:-3 / analyse=0x3:0x133 / me=umh / subme=10 / psy=1 / fade_compensate=0.00 / psy_rd=1.10:0.00 / mixed_ref=1 / me_range=24 / chroma_me=1 / trellis=2 / 8x8dct=1 / cqm=0 / deadzone=21,11 / fast_pskip=0 / chroma_qp_offset=-2 / threads=12 / lookahead_threads=3 / sliced_threads=0 / nr=0 / decimate=0 / interlaced=0 / bluray_compat=0 / constrained_intra=0 / fgo=0 / bframes=11 / b_pyramid=2 / b_adapt=2 / b_bias=0 / direct=3 / weightb=1 / open_gop=0 / weightp=2 / keyint=250 / keyint_min=23 / scenecut=40 / intra_refresh=0 / rc_lookahead=60 / rc=crf / mbtree=0 / crf=17.2000 / qcomp=0.65 / qpmin=0:0:0 / qpmax=69:69:69 / qpstep=4 / vbv_maxrate=62500 / vbv_bufsize=78125 / crf_max=0.0 / nal_hrd=none / filler=0 / ip_ratio=1.30 / pb_ratio=1.20 / aq=3:0.60 / aq-sensitivity=10.00 / aq-factor=1.00:1.00:1.00 / aq2=0 / aq3=0
Language : English
Default : Yes
Forced : No
Color range : Limited
Matrix coefficients : BT.709

Audio #1
ID : 2
Format : AC-3
Format/Info : Audio Coding 3
Codec ID : A_AC3
Duration : 1 h 55 min
Bit rate mode : Constant
Bit rate : 192 kb/s
Channel(s) : 2 channels
Channel positions : Front: L R
Sampling rate : 48.0 kHz
Frame rate : 31.250 FPS (1536 SPF)
Bit depth : 16 bits
Compression mode : Lossy
Stream size : 159 MiB (2%)
Title : UKR (Новий)
Language : Ukrainian
Service kind : Complete Main
Default : Yes
Forced : Yes

Audio #2
ID : 3
Format : AC-3
Format/Info : Audio Coding 3
Codec ID : A_AC3
Duration : 1 h 55 min
Bit rate mode : Constant
Bit rate : 192 kb/s
Channel(s) : 2 channels
Channel positions : Front: L R
Sampling rate : 48.0 kHz
Frame rate : 31.250 FPS (1536 SPF)
Bit depth : 16 bits
Compression mode : Lossy
Stream size : 159 MiB (2%)
Title : UKR (AMC)
Language : Ukrainian
Service kind : Complete Main
Default : No
Forced : No

Audio #3
ID : 4
Format : AC-3
Format/Info : Audio Coding 3
Codec ID : A_AC3
Duration : 1 h 55 min
Bit rate mode : Constant
Bit rate : 640 kb/s
Channel(s) : 6 channels
Channel positions : Front: L C R, Side: L R, LFE
Sampling rate : 48.0 kHz
Frame rate : 31.250 FPS (1536 SPF)
Bit depth : 16 bits
Compression mode : Lossy
Stream size : 531 MiB (8%)
Language : English
Service kind : Complete Main
Default : No
Forced : No

Audio #4
ID : 5
Format :
Format/Info : Advanced Audio Codec
Format profile : LC
Codec ID : A_AAC-2
Duration : 1 h 55 min
Channel(s) : 2 channels
Channel positions : Front: L R
Sampling rate : 48.0 kHz
Frame rate : 46.875 FPS (1024 SPF)
Compression mode : Lossy
Delay relative to video : 20 ms
Language : English
Default : No
Forced : No

Text
ID : 6
Format : UTF-8
Codec ID : S_TEXT/UTF8
Codec ID/Info : UTF-8 Plain Text
Language : English
Default : No
Forced : No
Скріншоти







За українську доріжку №1 подяка п.: karvai0, NemoInFire
За запис звуку з каналу AMC дякуємо пану Sando7

Особиста подяка пану denixx за надану матеріальну допомогу на підтримку цього і майбутніх релізів.
Джерело:


Срібний реліз (на рейтинг впливає 50% завантаженого)
 Трекер:    Зареєстрований   

Завантажити / скачати фільм українською



відео для новачків



 Зареєстрований:   2018-12-11 08:53
 Розмір:   6.91 GB 
 Оцінка фільму:   10/10 (Голосів: 3)
   
Інші релізи
   Повертайся до мене / Return to Me (2000) lenina4040  3 / 0   1.46 GB   2015-09-07 13:08 
Ваш часовий пояс: GMT + 2 Години

Нова тема   Відповісти