Берлінські пси (Сезон 1) / Dogs of Berlin (Season 1) (2018)

Нові коментарі

Нова тема   Відповісти
Автор Повідомлення
DniproFilm 
VIP


З нами з: 10.10.18
Востаннє: 17.08.19
Повідомлень: 258

2018-12-11 02:55  
Берлінські пси (Сезон 1) / Dogs of Berlin (Season 1) (2018)

Берлінські пси (Сезон 1) / Dogs of Berlin (Season 1) (2018)


Жанр: бойовик, драма, кримінальний, трилер
Країна: Німеччина



Кінокомпанія / телеканал: Syrreal Entertainment, Netflix
Режисер: Крістіан Альварт
Актори/ролі озвучують: Фелікс Крамер, Анна Марія Мюе, Урс Рехн, Катаріна Шюттлер, Фахрі Огюн Ярдім, Себастьян Ахілес, Антоніо Ваннек, Ханна Херцшпрунг, Сейнеб Салех та інші

Сюжет:
У центрі сюжету - двоє поліцейських, які змушені працювати разом, хоч є повною протилежністю один одного. В них різні методи роботи, різний темперамент і навіть національність: один - 100% німець зі Східного Берліна, другий - етнічний турок. Їх об'єднують з міркувань толерантності, адже розслідувати їм доведеться вбивство відомого футболіста, німецького громадянина з турецьким корінням. Роботи у хлопців чимало: наркоторгівля, підпільні азартні ігри, неонацисти-терористи (звичайно ж, в толерантній Європі терористами можуть бути лише нацисти, а не вихідці з Близького Сходу) та звичайні злодюжки…


Тривалість: 1 серія: ~ 60 хв. (цілком серій: 10)
Перелік серій

1. V.I.P.
2. Mannschaft
3. Begegnung
4. Heimspiel
5. Schiebung
6. Abseits
7. Derby
8. Länderspiel
9. Verlängerung
10. Siegerehrung
Якість:
Відео:
кодек:
розмір кадру: 720x360
бітрейт: ~1800 кб/с

Аудіо # 1:
мова: українська
переклад: багатоголосий закадровий
кодек: 5.1
бітрейт: 384 кб/с

Джерело озвучення:
DniproFilm
Info

Video
ID : 0
Format : MPEG-4 Visual
Format profile : Advanced [email protected]
Format settings : BVOP2
Format settings, BVOP : 2
Format settings, QPel : No
Format settings, GMC : No warppoints
Format settings, Matrix : Default (H.263)
Muxing mode : Packed bitstream
Codec ID :
Codec ID/Hint :
Duration : 1 h 1 min
Bit rate : 1 729 kb/s
Width : 720 pixels
Height : 360 pixels
Display aspect ratio : 2.000
Frame rate : 25.000 FPS
Color space : YUV
Chroma subsampling : 4:2:0
Bit depth : 8 bits
Scan type : Progressive
Compression mode : Lossy
Bits/(Pixel*Frame) : 0.267
Stream size : 766 MiB (81%)
Writing library : 67

Audio
ID : 1
Format : AC-3
Format/Info : Audio Coding 3
Commercial name : Dolby Digital
Codec ID : 2000
Duration : 1 h 1 min
Bit rate mode : Constant
Bit rate : 384 kb/s
Channel(s) : 6 channels
Channel positions : Front: L C R, Side: L R, LFE
Sampling rate : 48.0 kHz
Frame rate : 31.250 FPS (1536 SPF)
Bit depth : 16 bits
Compression mode : Lossy
Stream size : 170 MiB (18%)
Alignment : Aligned on interleaves
Interleave, duration : 40 ms (1.00 video frame)
Interleave, preload duratio : 512 ms
Service kind : Complete Main
Скріншоти


Увага, присутня відео та аудіореклама.


Джерело: DniproFilm


Авторський реліз (завантажувати можна без реєстрації)
 Трекер:    Зареєстрований   

Завантажити / скачати серіал українською



відео для новачків



 Зареєстрований:   2018-12-11 02:55
 Розмір:   8.33 GB 
 Оцінка серіалу:   9.9/10 (Голосів: 10)
   
Ostap.leshchuk 
Новенький


З нами з: 10.01.17
Востаннє: 19.08.19
Повідомлень: 2

2019-01-22 22:06  
Чи може автор добавити ще оригінальну звукову доріжку?
ced 
Свій


З нами з: 11.02.17
Востаннє: 22.08.19
Повідомлень: 98

2019-01-22 22:19  
Ostap.leshchuk написано:
Чи може автор добавити ще оригінальну звукову доріжку?

Оригінальна доріжка присутня в HD релізах цього серіалу.

Ostap.leshchuk 
Новенький


З нами з: 10.01.17
Востаннє: 19.08.19
Повідомлень: 2

2019-01-23 18:58  
дякую
pirog153 
Новенький


З нами з: 31.03.18
Востаннє: 04.07.19
Повідомлень: 4

2019-02-07 19:44  
Жорсткий і реалістичний детектив, без зайвих "шмарклів". Супер!
nataliksa 
Свій


З нами з: 18.04.14
Востаннє: 18.08.19
Повідомлень: 53

2019-02-09 17:23  
А другий сезон буде? Я у захваті,хоча і лячно тепер до Берліну їхати,гггг.
Ваш часовий пояс: GMT + 2 Години

Нова тема   Відповісти