Берлінські пси (Сезон 1) / Dogs of Berlin (Season 1) (2018) 720p Ukr/Ger

Нові коментарі

Нова тема   Відповісти
Останній раз роздавалося Ilmarren (2019-06-09)
Автор Повідомлення
DniproFilm 
VIP


З нами з: 10.10.18
Востаннє: 17.08.19
Повідомлень: 258

2018-12-11 02:55  
Берлінські пси (Сезон 1) / Dogs of Berlin (Season 1) (2018) 720p Ukr/Ger

Берлінські пси (Сезон 1) / Dogs of Berlin (Season 1) (2018) 720p Ukr/Ger


Жанр: бойовик, драма, кримінальний, трилер
Країна: Німеччина



Кінокомпанія / телеканал: Syrreal Entertainment, Netflix
Режисер: Крістіан Альварт
Актори/ролі озвучують: Фелікс Крамер, Анна Марія Мюе, Урс Рехн, Катаріна Шюттлер, Фахрі Огюн Ярдім, Себастьян Ахілес, Антоніо Ваннек, Ханна Херцшпрунг, Сейнеб Салех та інші

Сюжет:
У центрі сюжету - двоє поліцейських, які змушені працювати разом, хоч є повною протилежністю один одного. В них різні методи роботи, різний темперамент і навіть національність: один - 100% німець зі Східного Берліна, другий - етнічний турок. Їх об'єднують з міркувань толерантності, адже розслідувати їм доведеться вбивство відомого футболіста, німецького громадянина з турецьким корінням. Роботи у хлопців чимало: наркоторгівля, підпільні азартні ігри, неонацисти-терористи (звичайно ж, в толерантній Європі терористами можуть бути лише нацисти, а не вихідці з Близького Сходу) та звичайні злодюжки…


Тривалість: 1 серія: ~ 60 хв. (цілком серій: 10)
Перелік серій

1. V.I.P.
2. Mannschaft
3. Begegnung
4. Heimspiel
5. Schiebung
6. Abseits
7. Derby
8. Länderspiel
9. Verlängerung
10. Siegerehrung
Якість:
Відео:
кодек:
розмір кадру: 1280x640
бітрейт: ~4000 кб/с

Аудіо # 1:
мова: українська
переклад: багатоголосий закадровий
кодек: 5.1
бітрейт: 384 кб/с

Аудіо # 2:
мова: німецька
переклад: оригінал
кодек: 5.1
бітрейт: 640 кб/с

Джерело озвучення:
DniproFilm
Info

Video
ID : 1
Format : AVC
Format/Info : Advanced Video Codec
Format profile : [email protected]
Format settings : CABAC / 4 Ref Frames
Format settings, CABAC : Yes
Format settings, ReFrames : 4 frames
Codec ID : V_MPEG4/ISO/AVC
Duration : 1 h 1 min
Bit rate : 3 966 kb/s
Width : 1 280 pixels
Height : 640 pixels
Display aspect ratio : 2.000
Frame rate mode : Constant
Frame rate : 25.000 FPS
Standard : PAL
Color space : YUV
Chroma subsampling : 4:2:0
Bit depth : 8 bits
Scan type : Progressive
Bits/(Pixel*Frame) : 0.194
Stream size : 1.72 GiB (80%)
Language : English
Default : Yes
Forced : No
Color range : Limited
Color primaries : BT.709
Transfer characteristics : BT.709
Matrix coefficients : BT.709

Audio #1
ID : 2
Format : AC-3
Format/Info : Audio Coding 3
Commercial name : Dolby Digital
Codec ID : A_AC3
Duration : 1 h 1 min
Bit rate mode : Constant
Bit rate : 384 kb/s
Channel(s) : 6 channels
Channel positions : Front: L C R, Side: L R, LFE
Sampling rate : 48.0 kHz
Frame rate : 31.250 FPS (1536 SPF)
Bit depth : 16 bits
Compression mode : Lossy
Stream size : 170 MiB (8%)
Title : DniproFilm
Language : Ukrainian
Service kind : Complete Main
Default : Yes
Forced : No

Audio #2
ID : 3
Format : AC-3
Format/Info : Audio Coding 3
Codec ID : A_AC3
Duration : 1 h 1 min
Bit rate : 640 kb/s
Channel(s) : 6 channels
Sampling rate : 48.0 kHz
Frame rate : 31.250 FPS (1536 SPF)
Compression mode : Lossy
Stream size : 281 MiB (13%)
Language : German
Default : No
Forced : No
Скріншоти


Увага, присутня відео та аудіореклама.


Джерело: DniproFilm


Авторський реліз (завантажувати можна без реєстрації)
 Трекер:    Зареєстрований   

Завантажити / скачати серіал українською



відео для новачків



 Зареєстрований:   2018-12-11 02:55
 Розмір:   19.26 GB 
 Оцінка серіалу:   10/10 (Голосів: 4)
   
Ваш часовий пояс: GMT + 2 Години

Нова тема   Відповісти