Вулкан / Volcano (1997) AVC Ukr/Eng | Sub Eng

Нові коментарі

Нова тема   Відповісти
Автор Повідомлення
staf777 
Відео Гуртом - підтримка та поширення
Відео Гуртом - підтримка та поширення


З нами з: 16.11.16
Востаннє: 23.04.19
Повідомлень: 2285

2018-12-10 20:54  
Вулкан / Volcano (1997) AVC Ukr/Eng | Sub Eng

Вулкан / Volcano (1997) AVC Ukr/Eng | Sub Eng


Жанр: екшн, драма, фантастика, трилер
Країна: США



Кінокомпанія: Twentieth Century Fox Film Corporation, Donner/Shuler-Donner Productions, Moritz Original
Режисер: Мік Джексон / Mick Jackson
Актори: Томмі Лі Джонс /Tommy Lee Jones/, Енн Хеш /Anne Heche/, Гебі Хоффманн /Gaby Hoffmann/, Дон Чідл /Don Cheadle/, Жаклін Кім /Jacqueline Kim/, Кіт Девід /Keith David/, Джон Корбетт /John Corbett/, Майкл Рісполі /Michael Rispoli/, Джон Керролл Лінч /John Carroll Lynch

Сюжет:
Лос-Анджелес за час свого існування бачив достатньо стихійних лих: землетрусів, пожеж, повеней. Але тепер «місту янголів» доведеться зіткнутися з найстрашнішою з усіх пережитих катастроф, яка може стерти його з лиця землі. В одному з найщільніше населених районів Лос-Анджелеса раптом активізувався вулкан. Розпечена смертоносна лава вже почала виливатися на вулиці, заповнені автомобілями…


Тривалість: 01:43:51
Якість: AVC
Відео:
кодек:
розмір кадру: 1024x576
бітрейт: 3000 кб/с

Аудіо # 1:
мова: українська
переклад: двоголосий закадровий
кодек: 2.0
бітрейт: 192 кб/с

Аудіо # 2:
мова: англійська
переклад: оригінал
кодек: 5.1
бітрейт: 448 кб/с

Субтитри#1-2:
мова: англійська
тип: програмні (м'які)
формат: *.srt
Info
General
Unique ID : 131993733791897659491876243647294185669 (0x634D118529472C9FFFABD167C155A0C5)
Complete name : N:\ Volcano (1997) [Ukr,Eng sub.Eng] AVC [Hurtom].
Format :
Format version : Version 4 / Version 2
File size : 2.64 GiB
Duration : 1 h 43 min
Overall bit rate : 3 642 kb/s
Movie name : Volcano (1997) [Ukr,Eng sub.Eng] AVC [Hurtom]
Encoded date : UTC 2018-12-10 20:21:47
Writing application : v24.0.0 ('Beyond The Pale') 64-bit
Writing library : libebml v1.3.6 + v1.4.9
Cover : Yes
Attachments : cover.jpg

Video
ID : 1
Format : AVC
Format/Info : Advanced Video Codec
Format profile : [email protected]
Format settings : CABAC / 10 Ref Frames
Format settings, CABAC : Yes
Format settings, ReFrames : 10 frames
Codec ID : V_MPEG4/ISO/AVC
Duration : 1 h 43 min
Bit rate : 3 000 kb/s
Width : 1 024 pixels
Height : 576 pixels
Display aspect ratio : 16:9
Frame rate mode : Constant
Frame rate : 23.976 (24000/1001) FPS
Color space : YUV
Chroma subsampling : 4:2:0
Bit depth : 8 bits
Scan type : Progressive
Bits/(Pixel*Frame) : 0.212
Stream size : 2.18 GiB (82%)
Writing library : core 130 r2273 b3065e6
Encoding settings : cabac=1 / ref=10 / deblock=1:-3:-3 / analyse=0x3:0x133 / me=umh / subme=11 / psy=1 / psy_rd=1.00:0.20 / mixed_ref=1 / me_range=48 / chroma_me=1 / trellis=2 / 8x8dct=1 / cqm=0 / deadzone=21,11 / fast_pskip=0 / chroma_qp_offset=-3 / threads=6 / lookahead_threads=1 / sliced_threads=0 / nr=0 / decimate=0 / interlaced=0 / bluray_compat=0 / constrained_intra=0 / bframes=9 / b_pyramid=2 / b_adapt=2 / b_bias=0 / direct=3 / weightb=1 / open_gop=0 / weightp=2 / keyint=240 / keyint_min=23 / scenecut=40 / intra_refresh=0 / rc=2pass / mbtree=0 / bitrate=3000 / ratetol=1.0 / qcomp=0.60 / qpmin=0 / qpmax=69 / qpstep=4 / cplxblur=20.0 / qblur=0.5 / ip_ratio=1.40 / pb_ratio=1.30 / aq=1:1.00
Language : English
Default : Yes
Forced : No

Audio #1
ID : 2
Format : AC-3
Format/Info : Audio Coding 3
Codec ID : A_AC3
Duration : 1 h 43 min
Bit rate mode : Constant
Bit rate : 192 kb/s
Channel(s) : 2 channels
Channel positions : Front: L R
Sampling rate : 48.0 kHz
Frame rate : 31.250 FPS (1536 SPF)
Bit depth : 16 bits
Compression mode : Lossy
Stream size : 143 MiB (5%)
Title : UA-MVO, 2+2
Language : Ukrainian
Service kind : Complete Main
Default : Yes
Forced : Yes

Audio #2
ID : 3
Format : AC-3
Format/Info : Audio Coding 3
Codec ID : A_AC3
Duration : 1 h 43 min
Bit rate mode : Constant
Bit rate : 448 kb/s
Channel(s) : 6 channels
Channel positions : Front: L C R, Side: L R, LFE
Sampling rate : 48.0 kHz
Frame rate : 31.250 FPS (1536 SPF)
Bit depth : 16 bits
Compression mode : Lossy
Stream size : 333 MiB (12%)
Language : English
Service kind : Complete Main
Default : No
Forced : No

Text
ID : 4
Format : UTF-8
Codec ID : S_TEXT/UTF8
Codec ID/Info : UTF-8 Plain Text
Duration : 1 h 40 min
Bit rate : 89 b/s
Count of elements : 1932
Stream size : 66.3 KiB (0%)
Language : English
Default : No
Forced : No

Menu
00:00:00.000 : en:Chapter 01
00:11:41.742 : en:Chapter 02
00:21:57.357 : en:Chapter 03
00:30:05.553 : en:Chapter 04
00:42:56.115 : en:Chapter 05
00:53:30.749 : en:Chapter 06
01:02:27.827 : en:Chapter 07
01:10:18.839 : en:Chapter 08
01:21:46.818 : en:Chapter 09
01:33:04.662 : en:Chapter 10






Джерело: &
Подяки:
- п. Sando7 за запис з ТБ;
- п. voin747 за синхронізацію

Особиста оцінка: 8 - мені сподобалося
Вулкан / Volcano (1997) AVC Ukr/Eng | Sub Eng Вулкан / Volcano (1997) AVC Ukr/Eng | Sub Eng


Срібний реліз (на рейтинг впливає 50% завантаженого)
 Трекер:    Зареєстрований   

Завантажити / скачати фільм українською



відео для новачків



 Зареєстрований:   2018-12-12 13:17
 Розмір:   2.64 GB 
 Оцінка фільму:   8.2/10 (Голосів: 5)
   
Інші релізи
   Вулкан / Volcano (1997) 720p Ukr/Eng | Sub Eng staf777  4 / 0   6.4 GB   2017-02-20 17:36 
   Вулкан / Volcano (1997) patriot2305  2 / 0   1.18 GB   2014-03-24 15:06 
   Вулкан / Volcano (1997) Ukr/Eng | Sub Ukr/Eng _oles  0 / 1   1.72 GB   2010-07-09 16:35 
Pohikerd 
Свій


З нами з: 01.08.15
Востаннє: 11.03.19
Повідомлень: 70

2018-12-10 21:50  
Дякую, класне. Колись давно дивився, то якість була така собі. Це вже щось!
staf777 
Відео Гуртом - підтримка та поширення
Відео Гуртом - підтримка та поширення


З нами з: 16.11.16
Востаннє: 23.04.19
Повідомлень: 2285

2018-12-10 22:19  
Pohikerd
Ось є 720 https://toloka.to/t80034

bot 
робот


З нами з: 30.09.07
Востаннє: 26.05.05
Повідомлень: 21236

2018-12-12 13:17  
Тему перенесено з Анонси релізів до форуму Фільми


staf777

Ваш часовий пояс: GMT + 2 Години

Нова тема   Відповісти