Мауглі: Легенда джунглів / Mowgli: Legend of the Jungle (2018) 720p Ukr/Eng

Нові коментарі

Нова тема   Відповісти
Автор Повідомлення
DniproFilm 
Поважний учасник


З нами з: 10.10.18
Востаннє: 10.05.19
Повідомлень: 248

2018-12-10 20:14  
Мауглі: Легенда джунглів / Mowgli: Legend of the Jungle (2018) 720p Ukr/Eng

Мауглі: Легенда джунглів / Mowgli: Legend of the Jungle (2018) 720p Ukr/Eng
Альтернативний постер:

Мауглі: Легенда джунглів / Mowgli: Legend of the Jungle (2018) 720p Ukr/Eng


Жанр: пригодницький, драма, фентезі
Країна: Велика Британія



Кінокомпанія: The Imaginarium Studios, Warner Bros. Pictures, Netflix
Режисер: Енді Серкіс
Актори/ролі озвучують: Крістіан Бейл, Кейт Бланшетт, Бенедикт Камбербетч, Наомі Гарріс, Енді Серкіс, Пітер Маллан, Джек Рейнор, Едді Марсан, Том Голландер, Меттью Різ та інші

Сюжет:
Сюжет добре відомий – це історія про дорослішання дитини на ім'я Мауглі у вовчій зграї в джунглях Індії. Він вчиться суворими законами джунглів під опікою ведмедя Балу і пантери Багіри, а згодом приймає мешканців диких джунглів за своїх. Щоправда в новому проекті буде показано темну сторону мешканців непрохідних лісів, де звірі виглядатимуть не такими добрими і привітними як в попередніх адаптаціях та оригінальному романі Кіплінга…


Тривалість: 01:44:31

Якість:
Відео:
кодек:
розмір кадру: 1280x532
бітрейт: ~4000 кб/с

Аудіо # 1:
мова: українська
переклад: багатоголосий закадровий
кодек: 5.1
бітрейт: 384 кб/с

Аудіо # 2:
мова: англійська
переклад: оригінал
кодек: 5.1
бітрейт: 640 кб/с

Джерело озвучення:
DniproFilm
Info

Video
ID : 1
Format : AVC
Format/Info : Advanced Video Codec
Format profile : [email protected]
Format settings : CABAC / 4 Ref Frames
Format settings, CABAC : Yes
Format settings, ReFrames : 4 frames
Codec ID : V_MPEG4/ISO/AVC
Duration : 1 h 44 min
Bit rate : 3 959 kb/s
Width : 1 280 pixels
Height : 532 pixels
Display aspect ratio : 2.40:1
Frame rate mode : Constant
Frame rate : 23.976 (24000/1001) FPS
Standard : NTSC
Color space : YUV
Chroma subsampling : 4:2:0
Bit depth : 8 bits
Scan type : Progressive
Bits/(Pixel*Frame) : 0.242
Stream size : 2.89 GiB (79%)
Language : English
Default : Yes
Forced : No
Color range : Limited
Color primaries : BT.601 NTSC
Transfer characteristics : BT.601
Matrix coefficients : BT.601

Audio #1
ID : 2
Format : AC-3
Format/Info : Audio Coding 3
Commercial name : Dolby Digital
Codec ID : A_AC3
Duration : 1 h 44 min
Bit rate mode : Constant
Bit rate : 384 kb/s
Channel(s) : 6 channels
Channel positions : Front: L C R, Side: L R, LFE
Sampling rate : 48.0 kHz
Frame rate : 31.250 FPS (1536 SPF)
Bit depth : 16 bits
Compression mode : Lossy
Stream size : 287 MiB (8%)
Title : DniproFilm
Language : Ukrainian
Service kind : Complete Main
Default : Yes
Forced : No

Audio #2
ID : 3
Format : AC-3
Format/Info : Audio Coding 3
Codec ID : A_AC3
Duration : 1 h 44 min
Bit rate : 640 kb/s
Channel(s) : 6 channels
Sampling rate : 48.0 kHz
Frame rate : 31.250 FPS (1536 SPF)
Compression mode : Lossy
Stream size : 476 MiB (13%)
Language : English
Default : No
Forced : No
Скріншоти


Увага, присутня відео та аудіореклама 18+


Джерело: DniproFilm


Авторський реліз (завантажувати можна без реєстрації)
 Трекер:    Зареєстрований   

Завантажити / скачати фільм українською



відео для новачків



 Зареєстрований:   2018-12-10 20:14
 Розмір:   3.64 GB 
 Оцінка фільму:   9.5/10 (Голосів: 26)
   
kinaxem 
VIP


З нами з: 21.12.16
Востаннє: 25.05.19
Повідомлень: 315

2018-12-10 20:17  
Оце так приємний сюрприз! Дякую! Побільше б ви ось так радували нас фільмами з Нетфлікса...
olimpian1 
Поважний учасник


З нами з: 19.10.13
Востаннє: 25.05.19
Повідомлень: 163

2018-12-10 21:52  
Оперативно, дякую!
Lustopad 64 
Новенький


З нами з: 06.01.11
Востаннє: 24.05.19
Повідомлень: 3

2018-12-11 22:53  
"Присутня" - це про людину, а не про рекламу
wolfter 
Новенький


З нами з: 20.05.14
Востаннє: 24.05.19
Повідомлень: 5

2018-12-14 00:45  
8/10 Чудовий фільм, повчальний багато в чому.
В кінці графіка просіла, але на мою оцінку це не вплинуло.

dnepr s.a. 
Новенький


З нами з: 24.01.14
Востаннє: 22.05.19
Повідомлень: 20

2019-01-02 17:33  
Із обуренням відношусь до цього релізу новоспечених зарозумілих вискочок із Дніпрофільму. Попри те, що вони зробили добре діло і чудово переклали фільм, мали таку нахабність запихнути рекламу напочатку файлу і свій логотип, що займає лівий ніжній куток на протязі усього фільму. Не для того люди створбвали трекери і віддавали свої життя заради свободи інтернету, щоб ми мали качати фільми з рекламою!
Щоб вам руки повідсихали, ніякої совісті! Хочете себе прорекламувати? Зробіть знеску у кінці, перед титрами, що мов "переведено групою Дніпрофільм". Вас запам'ятають і радо будуть вам допомагати. А своєю нав'язливою рекламою ви тільки злите людей і створюєте собі репутацію жадібних і злизьких типів! Схаменіться, поки не пізно!

Хвала тим добродіям, що беруть ваші файли, вирізають рекламу ті усілякі логотипи і викладають на трекері!
Люди!, качайте ось цю версію, вона вільна вид гидоти: https://toloka.to/t97544

igor911 
Модератор відео


З нами з: 18.01.08
Востаннє: 25.05.19
Повідомлень: 12540

2019-01-03 12:19  
dnepr s.a. написано:
мали таку нахабність

Ти отримав можливість переглянути цей фільм українською саме завдяки цим "нахабам", як ти кажеш, та грошам рекламодавців, які оплатили українське озвучення.

Ваш часовий пояс: GMT + 2 Години

Нова тема   Відповісти