Життя за гранню (Після життя, Життя за межею) / After.Life (2009) AVC 3xUkr/Eng | sub Eng

Нові коментарі

Нова тема   Відповісти
Автор Повідомлення
staf777 
Відео Гуртом - підтримка та поширення
Відео Гуртом - підтримка та поширення


З нами з: 16.11.16
Востаннє: 23.04.19
Повідомлень: 2284

2018-12-10 19:49  
Життя за гранню / Після життя / Життя за межею / After.Life (2009) AVC 3xUkr/Eng | sub Eng

Життя за гранню (Після життя, Життя за межею) / After.Life (2009) AVC 3xUkr/Eng | sub Eng


Жанр: жахи, трилер, драма
Країна: США



Кінокомпанія: Lleju Productions
Режисер: Агнешка Войтовіч-Восло
Актори: Крістіна Річчі, Ліам Нісон, Джастін Лонг, Чандлер Кентербері, Джош Чарльз, Селія Вестон, Шулер Генслі, Лорел Брайс, Лорі Коул, Майкл Джеррард

Сюжет:
Молода жінка, що перебуває в трансцендентному стані між життям і смертю, бореться проти перспективи бути похованою живцем розпорядником похоронів, що тримає її долю в своїх руках.


Тривалість: 01:42:53
Якість: AVC
Відео:
кодек:
розмір кадру: 1024x426
бітрейт: 1857 кб/с

Аудіо # 1:
мова: українська
переклад: багатоголосий закадровий
кодек: 5.1
бітрейт: 448 кб/с

Аудіо # 2:
мова: українська
переклад: багатоголосий закадровий
кодек: 2.0
бітрейт: 192 кб/с

Аудіо # 3:
мова: українська
переклад: багатоголосий закадровий
кодек: 2.0
бітрейт: 192 кб/с

Аудіо # 4:
мова: англійська
переклад: оригінал
кодек: 5.1
бітрейт: 384 кб/с

Субтитри:
мова: англійська
тип: програмні (м'які)
формат: *.srt
MI
General
Unique ID : 122693677220966102568454871140699971564 (0x5C4DF154705632F0ED768B88B79F9FEC)
Complete name : N:\After.Life (2009) AVC [3xUKR][ENG][Hurtom].
Format :
Format version : Version 4 / Version 2
File size : 2.21 GiB
Duration : 1 h 42 min
Overall bit rate : 3 077 kb/s
Movie name : After.Life (2009) AVC [3xUKR][ENG][Hurtom]
Encoded date : UTC 2018-12-10 16:34:17
Writing application : v24.0.0 ('Beyond The Pale') 64-bit
Writing library : libebml v1.3.6 + v1.4.9
Cover : Yes
Attachments : cover.jpg

Video
ID : 1
Format : AVC
Format/Info : Advanced Video Codec
Format profile : [email protected]
Format settings : CABAC / 9 Ref Frames
Format settings, CABAC : Yes
Format settings, ReFrames : 9 frames
Codec ID : V_MPEG4/ISO/AVC
Duration : 1 h 42 min
Bit rate : 1 857 kb/s
Width : 1 024 pixels
Height : 426 pixels
Display aspect ratio : 2.40:1
Frame rate mode : Constant
Frame rate : 23.976 (24000/1001) FPS
Color space : YUV
Chroma subsampling : 4:2:0
Bit depth : 8 bits
Scan type : Progressive
Bits/(Pixel*Frame) : 0.178
Stream size : 1.33 GiB (60%)
Title : Rip by 0ptimus
Writing library : core 133 r2334 a3ac64b
Encoding settings : cabac=1 / ref=9 / deblock=1:-3:-3 / analyse=0x3:0x113 / me=umh / subme=11 / psy=1 / psy_rd=1.00:0.20 / mixed_ref=1 / me_range=32 / chroma_me=1 / trellis=2 / 8x8dct=1 / cqm=0 / deadzone=21,11 / fast_pskip=0 / chroma_qp_offset=-3 / threads=3 / lookahead_threads=1 / sliced_threads=0 / nr=0 / decimate=0 / interlaced=0 / bluray_compat=0 / constrained_intra=0 / bframes=12 / b_pyramid=2 / b_adapt=2 / b_bias=0 / direct=3 / weightb=1 / open_gop=0 / weightp=2 / keyint=240 / keyint_min=23 / scenecut=40 / intra_refresh=0 / rc_lookahead=40 / rc=2pass / mbtree=0 / bitrate=1857 / ratetol=1.0 / qcomp=0.60 / qpmin=0 / qpmax=69 / qpstep=4 / cplxblur=20.0 / qblur=0.5 / vbv_maxrate=50000 / vbv_bufsize=50000 / nal_hrd=none / ip_ratio=1.40 / pb_ratio=1.30 / aq=1:1.00
Language : English
Default : Yes
Forced : Yes

Audio #1
ID : 2
Format : AC-3
Format/Info : Audio Coding 3
Codec ID : A_AC3
Duration : 1 h 42 min
Bit rate mode : Constant
Bit rate : 448 kb/s
Channel(s) : 6 channels
Channel positions : Front: L C R, Side: L R, LFE
Sampling rate : 48.0 kHz
Frame rate : 31.250 FPS (1536 SPF)
Bit depth : 16 bits
Compression mode : Lossy
Stream size : 330 MiB (15%)
Title : [UKR-MVO-DVD]
Language : Ukrainian
Service kind : Complete Main
Default : Yes
Forced : Yes

Audio #2
ID : 3
Format : AC-3
Format/Info : Audio Coding 3
Codec ID : A_AC3
Duration : 1 h 42 min
Bit rate mode : Constant
Bit rate : 192 kb/s
Channel(s) : 2 channels
Channel positions : Front: L R
Sampling rate : 48.0 kHz
Frame rate : 31.250 FPS (1536 SPF)
Bit depth : 16 bits
Compression mode : Lossy
Stream size : 141 MiB (6%)
Title : [UKR-MVO-NLO]
Language : Ukrainian
Service kind : Complete Main
Default : No
Forced : No

Audio #3
ID : 4
Format : AC-3
Format/Info : Audio Coding 3
Codec ID : A_AC3
Duration : 1 h 42 min
Bit rate mode : Constant
Bit rate : 192 kb/s
Channel(s) : 2 channels
Channel positions : Front: L R
Sampling rate : 48.0 kHz
Frame rate : 31.250 FPS (1536 SPF)
Bit depth : 16 bits
Compression mode : Lossy
Stream size : 141 MiB (6%)
Title : [UKR-MVO-TET]
Language : Ukrainian
Service kind : Complete Main
Default : No
Forced : No

Audio #4
ID : 5
Format : AC-3
Format/Info : Audio Coding 3
Codec ID : A_AC3
Duration : 1 h 42 min
Bit rate mode : Constant
Bit rate : 384 kb/s
Channel(s) : 6 channels
Channel positions : Front: L C R, Side: L R, LFE
Sampling rate : 48.0 kHz
Frame rate : 31.250 FPS (1536 SPF)
Bit depth : 16 bits
Compression mode : Lossy
Stream size : 283 MiB (12%)
Title : 5.1 @ 384 kbps
Language : English
Service kind : Complete Main
Default : No
Forced : No

Text
ID : 6
Format : UTF-8
Codec ID : S_TEXT/UTF8
Codec ID/Info : UTF-8 Plain Text
Duration : 1 h 41 min
Bit rate : 37 b/s
Count of elements : 1078
Stream size : 28.1 KiB (0%)
Language : English
Default : No
Forced : No

Menu
00:00:00.000 : en:Somewhere Else
00:03:59.113 : en:Final Respects
00:10:38.804 : en:Misunderstanding
00:14:13.978 : en:Massive Internal Trauma
00:20:48.038 : en:Devastating News
00:30:44.634 : en:"The Dead Can't Harm The Dead"
00:41:26.901 : en:Feels More Like Hell
00:47:25.342 : en:"You Will Never Live Again"
00:59:30.858 : en:Ghostly Vision
01:05:01.230 : en:Nothing To Say
01:11:23.362 : en:"You Can't Help Her Anymore"
01:17:07.456 : en:Too Scared To Love
01:24:21.264 : en:The Funeral
01:29:47.673 : en:Premature Burial
01:34:39.382 : en:The Night Anna Came Out Of The Grave
01:37:14.787 : en:End Credits





Джерело: &
Особиста оцінка: 8 - мені сподобалося
Життя за гранню (Після життя, Життя за межею) / After.Life (2009) AVC 3xUkr/Eng | sub Eng Життя за гранню (Після життя, Життя за межею) / After.Life (2009) AVC 3xUkr/Eng | sub Eng


 Трекер:    Зареєстрований   

Завантажити / скачати фільм українською



відео для новачків



 Зареєстрований:   2018-12-10 19:49
 Розмір:   2.21 GB 
 Оцінка фільму:   8.4/10 (Голосів: 7)
   
Ваш часовий пояс: GMT + 2 Години

Нова тема   Відповісти