Клітка / The Cell (2000) AVC 2хUkr/Eng | Sub Eng

Нові коментарі

Нова тема   Відповісти
Автор Повідомлення
staf777 
Відео Гуртом - підтримка та поширення
Відео Гуртом - підтримка та поширення


З нами з: 16.11.16
Востаннє: 06.12.19
Повідомлень: 3038

2018-12-10 16:05  
Клітка / The Cell (2000) AVC 2хUkr/Eng | Sub Eng

Альтернативний постер та оригінальна обкладинка



Клітка / The Cell (2000) AVC 2хUkr/Eng | Sub Eng
Жанр: кримінал, драма, фентезі, трилер, детектив
Країна: США



Кінокомпанія: New Line Cinema
Режисер: Тарсем Сінґг (Tarsem Singh)
Актори: Дженніфер Лопез (Jennifer Lopez), Колтон Джеймс (Colton James), Ділан Бакер (Dylan Baker), Ґеррі Беккер (Gerry Becker), Масетта Вандер (Musetta Vander) та інші

Сюжет:
Психіатр Кетрін Дін - єдина, хто може врятувати молоду дівчину, викрадену серійним маніяком Карлом Старгером. На його рахунку вже майже десяток жертв, а жертвами, як правило, стають молоді привабливі дівчата, яких маніяк нелюдськи катує, перш ніж позбавити життя. Останню викрадену ним дівчину досі так і не знайшли, але є надія, що її ще можна врятувати. Для цього Кетрін доведеться зазирнути у мозок психопата і з'ясувати, де ж знаходиться нещасна жертва і що їй загрожує. Кетрін занурюється у дивний, незрозумілий світ маніяка, який не має нічого спільного із реальним життям. Але у цьому світі, створеному уявою збоченця всі закони виконуються лише для свого господаря. У цей світ легко потрапити, але вибратися звідти майже неможливо. Тепер небезпека загрожує психологу…


Тривалість: 01:47:10
Якість: AVC
Відео:
кодек:
розмір кадру: 1024x428
бітрейт: 1923 кб/с

Аудіо # 1:
мова: українська
переклад: багатоголосий закадровий
кодек: 2.0
бітрейт: 192 кб/с

Аудіо # 2:
мова: українська
переклад: багатоголосий закадровий
кодек: 2.0
бітрейт: 192 кб/с

Аудіо # 3:
мова: англійська
переклад: оригінал
кодек: 5.1
бітрейт: 448 кб/с

Субтитри:
мова: англійська
тип: програмні (м'які)
формат: *.srt
Info
General
Unique ID : 302524920201841727331087160020048851738 (0xE3982E266FFB41BA6AC5466E494CB31A)
Complete name : N:\ The Cell (2000) [Ukr,Eng sub.Eng] AVC [Hurtom].
Format :
Format version : Version 4 / Version 2
File size : 2.06 GiB
Duration : 1 h 47 min
Overall bit rate : 2 757 kb/s
Movie name : The Cell (2000) [Ukr,Eng sub.Eng] AVC [Hurtom]
Encoded date : UTC 2018-12-10 14:05:01
Writing application : v24.0.0 ('Beyond The Pale') 64-bit
Writing library : libebml v1.3.6 + v1.4.9
Cover : Yes
Attachments : xlog.txt / cover.jpg

Video
ID : 1
Format : AVC
Format/Info : Advanced Video Codec
Format profile : [email protected]
Format settings : CABAC / 10 Ref Frames
Format settings, CABAC : Yes
Format settings, ReFrames : 10 frames
Codec ID : V_MPEG4/ISO/AVC
Duration : 1 h 47 min
Bit rate : 1 923 kb/s
Width : 1 024 pixels
Height : 428 pixels
Display aspect ratio : 2.40:1
Frame rate mode : Constant
Frame rate : 23.976 (24000/1001) FPS
Color space : YUV
Chroma subsampling : 4:2:0
Bit depth : 8 bits
Scan type : Progressive
Bits/(Pixel*Frame) : 0.183
Stream size : 1.44 GiB (70%)
Writing library : core 130 r2273 b3065e6
Encoding settings : cabac=1 / ref=10 / deblock=1:-3:-3 / analyse=0x3:0x133 / me=umh / subme=11 / psy=1 / psy_rd=1.00:0.20 / mixed_ref=1 / me_range=48 / chroma_me=1 / trellis=2 / 8x8dct=1 / cqm=0 / deadzone=21,11 / fast_pskip=0 / chroma_qp_offset=-3 / threads=9 / lookahead_threads=1 / sliced_threads=0 / nr=0 / decimate=0 / interlaced=0 / bluray_compat=0 / constrained_intra=0 / bframes=9 / b_pyramid=2 / b_adapt=2 / b_bias=0 / direct=3 / weightb=1 / open_gop=0 / weightp=2 / keyint=240 / keyint_min=23 / scenecut=40 / intra_refresh=0 / rc=2pass / mbtree=0 / bitrate=1923 / ratetol=1.0 / qcomp=0.60 / qpmin=0 / qpmax=69 / qpstep=4 / cplxblur=20.0 / qblur=0.5 / ip_ratio=1.40 / pb_ratio=1.30 / aq=2:1.20
Language : English
Default : Yes
Forced : Yes

Audio #1
ID : 2
Format : AC-3
Format/Info : Audio Coding 3
Codec ID : A_AC3
Duration : 1 h 47 min
Bit rate mode : Constant
Bit rate : 192 kb/s
Channel(s) : 2 channels
Channel positions : Front: L R
Sampling rate : 48.0 kHz
Frame rate : 31.250 FPS (1536 SPF)
Bit depth : 16 bits
Compression mode : Lossy
Stream size : 147 MiB (7%)
Title : UA-MVO, ІНТЕР
Language : Ukrainian
Service kind : Complete Main
Default : Yes
Forced : Yes

Audio #2
ID : 3
Format : AC-3
Format/Info : Audio Coding 3
Codec ID : A_AC3
Duration : 1 h 47 min
Bit rate mode : Constant
Bit rate : 192 kb/s
Channel(s) : 2 channels
Channel positions : Front: L R
Sampling rate : 48.0 kHz
Frame rate : 31.250 FPS (1536 SPF)
Bit depth : 16 bits
Compression mode : Lossy
Stream size : 147 MiB (7%)
Title : [UA-MVO], ICTV
Language : Ukrainian
Service kind : Complete Main
Default : No
Forced : No

Audio #3
ID : 4
Format : AC-3
Format/Info : Audio Coding 3
Codec ID : A_AC3
Duration : 1 h 47 min
Bit rate mode : Constant
Bit rate : 448 kb/s
Channel(s) : 6 channels
Channel positions : Front: L C R, Side: L R, LFE
Sampling rate : 48.0 kHz
Frame rate : 31.250 FPS (1536 SPF)
Bit depth : 16 bits
Compression mode : Lossy
Stream size : 343 MiB (16%)
Title : ENG
Language : English
Service kind : Complete Main
Default : No
Forced : No

Text
ID : 5
Format : UTF-8
Codec ID : S_TEXT/UTF8
Codec ID/Info : UTF-8 Plain Text
Duration : 1 h 38 min
Bit rate : 34 b/s
Count of elements : 871
Stream size : 25.1 KiB (0%)
Title : ENG SRT/UTF8
Language : English
Default : No
Forced : No






Джерело: &
Подяка:
Пані olgaya та пану MAKAPOHHIK за доріжку №1,
Пану karvai0 та пану robotron005 за доріжку №2.
Панам 1SPY та Тирік'у за українізовані постери.

Особиста оцінка: 8 - мені сподобалося
Клітка / The Cell (2000) AVC 2хUkr/Eng | Sub Eng Клітка / The Cell (2000) AVC 2хUkr/Eng | Sub Eng


Срібний реліз (на рейтинг впливає 50% завантаженого)
 Трекер:    Зареєстрований   

Завантажити / скачати фільм українською



відео для новачків



 Зареєстрований:   2018-12-10 17:54
 Розмір:   2.06 GB 
 Оцінка фільму:   8.2/10 (Голосів: 13)
   
Інші релізи
   Клітка / The Cell (2000) 1080p 2хUkr/Eng | Sub Eng staf777  4 / 0   8.73 GB   2017-03-02 09:13 
   Клітка / The Cell (2000) 2хUkr/Eng | Sub Eng robotron005  2 / 0   2.19 GB   2013-10-02 17:21 
   Клітка / The Cell (2000) 720p Ukr/Eng | Sub Eng Virake  1 / 0   4.71 GB   2013-02-20 21:50 
bot 
робот


З нами з: 30.09.07
Востаннє: 26.05.05
Повідомлень: 22590

2018-12-10 17:54  
Тему перенесено з Анонси релізів до форуму Фільми


staf777

Arcon Sarkel 
Попереджень: 2
Попереджень: 2 


З нами з: 04.03.16
Востаннє: 24.08.19
Повідомлень: 241

2018-12-10 18:07  
Фільм шедевральний, пригадую. Вже нетерплячка, треба квапливо гойдати фільм.
Ваш часовий пояс: GMT + 2 Години

Нова тема   Відповісти