Астрал / Insidious (2010) AVC 2xUkr/Eng | Sub Ukr/Eng

Нові коментарі

Нова тема   Відповісти
Автор Повідомлення
staf777 
Відео Гуртом - підтримка та поширення
Відео Гуртом - підтримка та поширення


З нами з: 16.11.16
Востаннє: 14.11.19
Повідомлень: 3019

2018-12-09 22:37  
Астрал / Insidious (2010) AVC 2xUkr/Eng | Sub Ukr/Eng

Астрал / Insidious (2010) AVC 2xUkr/Eng | Sub Ukr/Eng


Жанр: жахи, трилер
Країна: США



Кінокомпанія: FilmDistrict, Stage 6 Films, Alliance Films, IM Global, Haunted Movies, Automatik Entertainment, Blumhouse Productions
Режисер: Джеймс Ван (James Wan)
Актори: Патрік Вілсон (Patrick Wilson), Роуз Бірн (Rose Byrne), Ті Кіген Сімпкінс (Ty Simpkins), Ендрю Естор (Andrew Astor), Лін Шей (Lin Shaye), Лі Уоннел (Leigh Whannell), Енгус Семпсон (Angus Sampson), Барбара Херші (Barbara Hershey), Корбет Так (Corbett Tuck) та інші.

Сюжет:
Джош і Ріней переїжджають зі своїми дітьми в новий будинок, але не встигають навіть розпакувати речі, як починаються дивні події. Переміщуються предмети, в дитячій кімнаті лунають дивні звуки... Справжній жах охоплює батьків, коли їх десятирічний син Далтон впадає в кому. Всі зусилля лікарів в лікарні допомогти хлопчикові безуспішні. Кілька місяців по тому його повертають додому, де за нещасною дитиною доглядають мати і доглядальниця. Але загадкові явища в будинку тривають. Зневірені батьки готові звернутися за допомогою до кого завгодно і незабаром з'ясовується, що Далтон в несвідомому стані пов'язаний з паранормальним світом...


Тривалість: 01:42:22
Якість: AVC
Відео:
кодек:
розмір кадру: 1088x456
бітрейт: 2153 кб/с

Аудіо # 1:
мова: українська
переклад: багатоголосий закадровий
кодек: 2.0
бітрейт: 192 кб/с

Аудіо # 2:
мова: українська
переклад: багатоголосий закадровий
кодек: 5.1
бітрейт: 384 кб/с

Аудіо # 3:
мова: англійська
переклад: оригінал
кодек: 5.1
бітрейт: 448 кб/с

Субтитри:
мова: українська
тип: програмні (м'які)
формат: *.srt

Субтитри: (SDH + SDH-Colored)
мова: англійська
тип: програмні (м'які)
формат: *.srt
MI
General
Unique ID : 314553422598976164378222887751656331113 (0xECA4C91B11987B6DF4C0BDDDB66AD769)
Complete name : N:\Фільми AVC\Жахи\Insidious (2010) [2xUkr,Eng] AVC [Hurtom].
Format :
Format version : Version 4 / Version 2
File size : 2.27 GiB
Duration : 1 h 42 min
Overall bit rate : 3 179 kb/s
Movie name : Insidious (2010) [2xUkr,Eng] AVC [Hurtom]
Encoded date : UTC 2018-12-09 20:00:31
Writing application : v24.0.0 ('Beyond The Pale') 64-bit
Writing library : libebml v1.3.6 + v1.4.9
Cover : Yes
Attachments : cover.jpg

Video
ID : 1
Format : AVC
Format/Info : Advanced Video Codec
Format profile : [email protected]
Format settings : CABAC / 9 Ref Frames
Format settings, CABAC : Yes
Format settings, ReFrames : 9 frames
Codec ID : V_MPEG4/ISO/AVC
Duration : 1 h 42 min
Bit rate : 2 153 kb/s
Width : 1 088 pixels
Height : 456 pixels
Display aspect ratio : 2.40:1
Frame rate mode : Constant
Frame rate : 23.976 (24000/1001) FPS
Color space : YUV
Chroma subsampling : 4:2:0
Bit depth : 8 bits
Scan type : Progressive
Bits/(Pixel*Frame) : 0.181
Stream size : 1.54 GiB (68%)
Title : Insidious
Writing library : core 112 r1834 a51816a
Encoding settings : cabac=1 / ref=9 / deblock=1:-1:-1 / analyse=0x3:0x113 / me=esa / subme=9 / psy=1 / psy_rd=1.00:0.10 / mixed_ref=1 / me_range=16 / chroma_me=1 / trellis=1 / 8x8dct=1 / cqm=0 / deadzone=21,11 / fast_pskip=1 / chroma_qp_offset=-3 / threads=6 / sliced_threads=0 / nr=0 / decimate=1 / interlaced=0 / constrained_intra=0 / bframes=5 / b_pyramid=2 / b_adapt=2 / b_bias=0 / direct=3 / weightb=1 / open_gop=1 / weightp=2 / keyint=250 / keyint_min=23 / scenecut=40 / intra_refresh=0 / rc_lookahead=50 / rc=2pass / mbtree=1 / bitrate=2153 / ratetol=1.0 / qcomp=0.60 / qpmin=0 / qpmax=51 / qpstep=4 / cplxblur=20.0 / qblur=0.5 / ip_ratio=1.40 / aq=1:1.00
Language : English
Default : Yes
Forced : No

Audio #1
ID : 2
Format : AC-3
Format/Info : Audio Coding 3
Codec ID : A_AC3
Duration : 1 h 42 min
Bit rate mode : Constant
Bit rate : 192 kb/s
Channel(s) : 2 channels
Channel positions : Front: L R
Sampling rate : 48.0 kHz
Frame rate : 31.250 FPS (1536 SPF)
Bit depth : 16 bits
Compression mode : Lossy
Stream size : 141 MiB (6%)
Title : Український багатоголосий закадровий переклад - НЛО.TV [ 2.0; 192 кб/с]
Language : Ukrainian
Service kind : Complete Main
Default : Yes
Forced : Yes

Audio #2
ID : 3
Format : AC-3
Format/Info : Audio Coding 3
Codec ID : A_AC3
Duration : 1 h 42 min
Bit rate mode : Constant
Bit rate : 384 kb/s
Channel(s) : 6 channels
Channel positions : Front: L C R, Side: L R, LFE
Sampling rate : 48.0 kHz
Frame rate : 31.250 FPS (1536 SPF)
Bit depth : 16 bits
Compression mode : Lossy
Stream size : 281 MiB (12%)
Title : Український багатоголосий закадровий переклад - M&M (Monster Mix) [ 5.1; 384кб/с]
Language : Ukrainian
Service kind : Complete Main
Default : No
Forced : No

Audio #3
ID : 4
Format : AC-3
Format/Info : Audio Coding 3
Codec ID : A_AC3
Duration : 1 h 42 min
Bit rate mode : Constant
Bit rate : 448 kb/s
Channel(s) : 6 channels
Channel positions : Front: L C R, Side: L R, LFE
Sampling rate : 48.0 kHz
Frame rate : 31.250 FPS (1536 SPF)
Bit depth : 16 bits
Compression mode : Lossy
Stream size : 328 MiB (14%)
Title : Original | DD 5.1 @ 448 kbps
Language : English
Service kind : Complete Main
Default : No
Forced : No

Text #1
ID : 5
Format : UTF-8
Codec ID : S_TEXT/UTF8
Codec ID/Info : UTF-8 Plain Text
Duration : 1 h 37 min
Bit rate : 54 b/s
Count of elements : 736
Stream size : 38.6 KiB (0%)
Title : Ukrainian
Language : Ukrainian
Default : No
Forced : No

Text #2
ID : 6
Format : UTF-8
Codec ID : S_TEXT/UTF8
Codec ID/Info : UTF-8 Plain Text
Duration : 1 h 36 min
Bit rate : 49 b/s
Count of elements : 1032
Stream size : 34.8 KiB (0%)
Title : SDH-Colored
Language : English
Default : No
Forced : No

Text #3
ID : 7
Format : UTF-8
Codec ID : S_TEXT/UTF8
Codec ID/Info : UTF-8 Plain Text
Duration : 1 h 36 min
Bit rate : 40 b/s
Count of elements : 1032
Stream size : 28.8 KiB (0%)
Title : SDH
Language : English
Default : No
Forced : No

Menu
00:00:00.000 : en:00:00:00.000
00:07:39.000 : en:00:07:39.000
00:11:59.218 : en:00:11:59.218
00:17:59.578 : en:00:17:59.578
00:23:46.884 : en:00:23:46.884
00:30:32.247 : en:00:30:32.247
00:35:44.893 : en:00:35:44.893
00:43:48.251 : en:00:43:48.251
00:47:34.060 : en:00:47:34.060
00:54:06.118 : en:00:54:06.118
01:01:36.526 : en:01:01:36.526
01:09:12.815 : en:01:09:12.815
01:14:06.067 : en:01:14:06.067
01:22:37.327 : en:01:22:37.327
01:27:53.393 : en:01:27:53.393
01:35:58.878 : en:01:35:58.878






Подяки: запис з ТБ - slavik_v_z, Sando7, POMEO; синхронізація - patriot2305; переклад і озвучення - TRO[9]N,--Rom--, 1992mihailooooo та s1esta.
Джерело: &
Особиста оцінка: 8 - мені сподобалося
Астрал / Insidious (2010) AVC 2xUkr/Eng | Sub Ukr/Eng Астрал / Insidious (2010) AVC 2xUkr/Eng | Sub Ukr/Eng


Авторський реліз (завантажувати можна без реєстрації)
 Трекер:    Зареєстрований   

Завантажити / скачати фільм українською



відео для новачків



 Зареєстрований:   2018-12-09 22:37
 Розмір:   2.27 GB 
 Оцінка фільму:   9.5/10 (Голосів: 8)
   
Інші релізи
   Астрал / Insidious (2010) 1080p H.265 2xUkr/Eng | Sub Ukr/Eng -Star-Lord-  1 / 0   2.94 GB   2019-09-13 20:59 
   Астрал / Insidious (2010) 1080p 2xUkr/Eng kvvdvd  3 / 0   10.07 GB   2016-10-14 11:00 
   Астрал / Insidious (2010) 720p 2xUkr/Eng | Sub Ukr Dim-ON  1 / 0   3.82 GB   2015-11-29 22:18 
   Астрал / Insidious (2010) patriot2305  5 / 0   1.45 GB   2015-11-11 09:58 
   Астрал / Insidious (2010) AVC Anonymous  3 / 0   2.41 GB   2011-09-05 18:59 
   Астрал / Insidious (2010) --Rom--  0 / 0   1.45 GB   2011-06-28 16:36 
   Астрал / Insidious (2010) Ukr/Eng TRO[9]N  0 / 0   2 GB   2011-06-28 16:35 
Ваш часовий пояс: GMT + 2 Години

Нова тема   Відповісти