Герой мого часу / Hero of My Time (2018) AVC

Нові коментарі

Нова тема   Відповісти
Автор Повідомлення
11FrYkT 
Модератор відео


З нами з: 20.02.11
Востаннє: 07.03.21
Повідомлень: 7153

2018-12-09 19:59  
Герой мого часу / Hero of My Time (2018) AVC


Жанр: комедія
Країна: Україна



Кінокомпанія: Creative Boutique Films
Режисер: Тоня Ноябрьова
Актори: Євген Бушмакін, Олег Шевцов, Василіса Фролова, Соня Забуга, Олена Курта, Наталка Якимович, Марина Шевченко та інші

Сюжет:
Головний герой фільму - Жорік. Він - один з тих, хто приїздить шукати кращої долі до мегаполісу. І місто тут також – один з головних героїв. Сповнений романтичних сподівань, Жорік готовий йти до своєї мрії та пристрасно за неї боротися із ударами долі. Його вороги - працівники ЖЕКу, сусіди без громадянської позиції та пафосний бомонд. Як і багато українців, Жорік прагне змінити свою країну, але постійно розчаровується, бо ніяк не вдається це зробити за кілька тижнів.


Тривалість: 01:17:08
Якість: AVC (Hurtom)

Відео:
кодек:
розмір кадру: 1024 х 576
бітрейт: 1833 кб/c

Аудіо:
мова: українська
озвучення: оригінал (стерео)
кодек: 2.0
бітрейт: 192 кб/с
Info
Код:
General
Unique ID : 188490425614477455134425321482342629449 (0x8DCDEF7C69645BF54721FBFC78180049)
Complete name : D:\Завантаження\Герой мого часу (2018) AVC [UKR] [Hurtom].
Format :
Format version : Version 4 / Version 2
File size : 1.09 GiB
Duration : 1 h 17 min
Overall bit rate : 2 027 kb/s
Movie name : Герой мого часу / Hero of My Time (2018)
Encoded date : UTC 2021-03-07 08:59:33
Writing application : v51.0.0 ('I Wish') 32-bit
Writing library : libebml v1.4.0 + v1.6.2
Cover : Yes
Attachments : cover

Video
ID : 1
Format : AVC
Format/Info : Advanced Video Codec
Format profile : [email protected]
Format settings, CABAC : Yes
Format settings, RefFrames : 9 frames
Codec ID : V_MPEG4/ISO/AVC
Duration : 1 h 17 min
Bit rate : 1 833 kb/s
Width : 1 024 pixels
Height : 576 pixels
Display aspect ratio : 16:9
Frame rate mode : Constant
Frame rate : 25.000 FPS
Color space : YUV
Chroma subsampling : 4:2:0
Bit depth : 8 bits
Scan type : Progressive
Bits/(Pixel*Frame) : 0.124
Stream size : 1 012 MiB (90%)
Writing library : core 142 r2431 ac76440
Encoding settings : cabac=1 / ref=9 / deblock=1:-1:-1 / analyse=0x3:0x113 / me=umh / subme=11 / psy=1 / psy_rd=1.00:0.15 / mixed_ref=1 / me_range=48 / chroma_me=1 / trellis=2 / 8x8dct=1 / cqm=0 / deadzone=21,11 / fast_pskip=0 / chroma_qp_offset=-5 / threads=12 / lookahead_threads=2 / sliced_threads=0 / nr=0 / decimate=1 / interlaced=0 / bluray_compat=0 / constrained_intra=0 / bframes=8 / b_pyramid=2 / b_adapt=2 / b_bias=0 / direct=1 / weightb=1 / open_gop=0 / weightp=2 / keyint=250 / keyint_min=25 / scenecut=40 / intra_refresh=0 / rc_lookahead=60 / rc=2pass / mbtree=1 / bitrate=1833 / ratetol=1.0 / qcomp=0.60 / qpmin=10 / qpmax=69 / qpstep=4 / cplxblur=20.0 / qblur=0.5 / vbv_maxrate=50000 / vbv_bufsize=62500 / nal_hrd=none / filler=0 / ip_ratio=1.40 / aq=1:1.00
Language : Ukrainian
Default : Yes
Forced : No

Audio
ID : 2
Format : AC-3
Format/Info : Audio Coding 3
Format settings, Endianness : Big
Codec ID : A_AC3
Duration : 1 h 17 min
Bit rate mode : Constant
Bit rate : 192 kb/s
Channel(s) : 2 channels
Channel positions : Front: L R
Sampling rate : 48.0 kHz
Frame rate : 31.250 FPS (1536 SPF)
Bit depth : 16 bits
Compression mode : Lossy
Stream size : 106 MiB (9%)
Title : Original, 2.0 @ 192 kbps
Language : Ukrainian
Service kind : Complete Main
Default : Yes
Forced : Yes


Підтримати купівлю інших фільмів можна тут

Джерело:


Золотий реліз (завантажене не впливає на рейтинг)
 Трекер:    Зареєстрований   

Завантажити / скачати український фільм



відео для новачків



 Зареєстрований:   2021-03-07 19:23
 Розмір:   1.09 GB 
 Оцінка фільму:   7.6/10 (Голосів: 28)
   
Інші релізи
   Герой мого часу / Hero of My Time (2018) 720p 7andrii  5 / 0   1.45 GB   2019-11-14 00:12 
   Герой мого часу / Hero of My Time (2018) igor911  19 / 0   1.35 GB   2018-12-05 16:06 
   Герой мого часу / Hero of My Time (2018) 1080p Electroz  29 / 0   3.28 GB   2018-12-04 23:45 
Sllavko 
Поважний учасник


З нами з: 10.06.12
Востаннє: 07.03.21
Повідомлень: 216

2018-12-16 20:15  
треш.
не рекомендую витрачати час

Arcon Sarkel 
Попереджень: 2
Попереджень: 2 


З нами з: 04.03.16
Востаннє: 13.10.20
Повідомлень: 246

2019-01-17 18:25  
Кумедний фільм з реальністю сьогодення.
[офтоп видалено]

jonny_jay 
Новенький


З нами з: 10.01.18
Востаннє: 05.03.21
Повідомлень: 16

2019-09-28 22:22  
Задумка хороша. Як для дебюту режисерки, непогано. Але всеодно нудно 5\10
Ваш часовий пояс: GMT + 2 Години

Нова тема   Відповісти