Порно з вбивством (2018)

Нові коментарі

Нова тема   Відповісти
Автор Повідомлення
Anonymous 







2018-12-09 15:21  
Порно з вбивством (2018)

Порно з вбивством (2018)
Альтернативний постер:

Порно з вбивством (2018)


Жанр: комедія
Країна: Україна

Кінокомпанія: Rain Poncho Film
Режисер: Дамір Єналієв
Актори: Євген Юхновець, Ганна Дьяченко, Дмитро Олешко, Сергій Деньга, Сабіна Чумак, Олександр Самусенко

Сюжет:
Щоби якось вирішити свої фінансові проблеми й повернути великий борг бандиту на прізвисько Краватка, бізнесмен-невдаха Денис наважується на нову для себе справу, якою стають зйомки фільмів для дорослих. Однак у такій делікатній справі, крім голого ентузіазму, непогано було б мати хоч якийсь досвід, а ось саме його в героя немає.
Офіційні українські тизер та трейлер:

тизер:


трейлер:

Вікова категорія: 16+

Тривалість: 01:18:47
Якість: [Hurtom]

Відео:
кодек:
розмір кадру: 720х304
бітрейт: 2320 кб/с

Аудіо:
мова: українська
переклад: оригінал
кодек: 2.0 [стерео]
бітрейт: 192 кб/с
Info
Код:
General
Complete name               : Porno z vbyvstvom (2018) [Hurtom].avi
Format                      : AVI
Format/Info                 : Audio Video Interleave
File size                   : 1.39 GiB
Duration                    : 1 h 18 min
Overall bit rate            : 2 522 kb/s
Movie name                  : Порно з вбивством (2018) [Hurtom]
Writing application         : VirtualDubModUkr 1.5.10.2 (build 2542/release)
Writing library             : VirtualDubMod build 2542/release

Video
ID                          : 0
Format                      : MPEG-4 Visual
Format profile              : Advanced [email protected]
Format settings             : BVOP1
Format settings, BVOP       : 1
Format settings, QPel       : No
Format settings, GMC        : No warppoints
Format settings, Matrix     : Default (MPEG)
Codec ID                    :
Codec ID/Hint               :
Duration                    : 1 h 18 min
Bit rate                    : 2 320 kb/s
Width                       : 720 pixels
Height                      : 304 pixels
Display aspect ratio        : 2.35:1
Frame rate                  : 25.000 FPS
Color space                 : YUV
Chroma subsampling          : 4:2:0
Bit depth                   : 8 bits
Scan type                   : Progressive
Compression mode            : Lossy
Bits/(Pixel*Frame)          : 0.424
Stream size                 : 1.28 GiB (92%)
Writing library             : 67

Audio
ID                          : 1
Format                      : AC-3
Format/Info                 : Audio Coding 3
Commercial name             : Dolby Digital
Codec ID                    : 2000
Duration                    : 1 h 18 min
Bit rate mode               : Constant
Bit rate                    : 192 kb/s
Channel(s)                  : 2 channels
Channel layout              : L R
Sampling rate               : 48.0 kHz
Frame rate                  : 31.250 FPS (1536 SPF)
Bit depth                   : 16 bits
Compression mode            : Lossy
Stream size                 : 108 MiB (8%)
Alignment                   : Split accross interleaves
Interleave, duration        : 40  ms (1.00 video frame)
Interleave, preload duratio : 500  ms
Service kind                : Complete Main


Джерело: &



Золотий реліз (завантажене не впливає на рейтинг)
 Трекер:    Зареєстрований   

Завантажити / скачати український фільм



відео для новачків



 Зареєстрований:   2018-12-09 17:55
 Розмір:   1.39 GB 
 Оцінка фільму:   8.2/10 (Голосів: 26)
   
andriy_nv 
VIP


З нами з: 27.06.08
Востаннє: 11.12.19
Повідомлень: 960

2019-02-19 18:54  
ніяке
Ваш часовий пояс: GMT + 2 Години

Нова тема   Відповісти