Велика піна / Soapdish (1991) AVC Ukr/Eng | Sub Eng

Нові коментарі

Нова тема   Відповісти
Автор Повідомлення
staf777 
Відео Гуртом - підтримка та поширення
Відео Гуртом - підтримка та поширення


З нами з: 16.11.16
Востаннє: 20.10.19
Повідомлень: 2990

2018-12-09 10:08  
Велика піна / Soapdish (1991) AVC Ukr/Eng | Sub Eng

Велика піна / Soapdish (1991) AVC Ukr/Eng | Sub Eng


Жанр: комедія
Країна: США



Кінокомпанія: Paramount Pictures
Режисер: Майкл Хоффман
Актори: Саллі Філд, Кевін Кляйн, Роберт Дауні мол., Елізабет Шу, Вупі Голдберг, Гаррі Маршал, Керрі Фішер (хто не знає - принцеса Лея із Star Wars)

Сюжет:
Неабиякі пристрасті розгораються не лише на знімальному майданчику "мильної опери", а й за її межами. Головна героїня, зірка телебачення, стає жертвою інтриг з боку її молодих суперниць... Знімальний майданчик і особисте життя учасників проекту перетворюється в справжній божевільний будинок - не відрізнити правду від вигадки.


Тривалість: 01:36:26
Якість: AVC
Відео:
кодек:
розмір кадру: 1024x576
бітрейт: 1833 кб/с

Аудіо # 1: Так Треба Продакшн на замовлення
мова: українська
переклад: багатоголосий закадровий
кодек: 2.0
бітрейт: 192 кб/с

Аудіо # 2:
мова: англійська
переклад: оригінал
кодек: 5.1
бітрейт: 448 кб/с

Субтитри: (SDH)
мова: англійська
тип: програмні (м'які)
формат: *.srt
Info
General
Unique ID : 131856430217177252892594555895846798441 (0x63329FEE67C43A5CE61EC436CA000469)
Complete name : N:\ Soapdish (1991) [Ukr,Eng sub.Eng] AVC [Hurtom].
Format :
Format version : Version 4 / Version 2
File size : 1.67 GiB
Duration : 1 h 36 min
Overall bit rate : 2 476 kb/s
Movie name : Soapdish (1991) [Ukr,Eng sub.Eng] AVC [Hurtom]
Encoded date : UTC 2018-12-09 06:52:45
Writing application : v24.0.0 ('Beyond The Pale') 64-bit
Writing library : libebml v1.3.6 + v1.4.9
Attachments : poster.jpg

Video
ID : 1
Format : AVC
Format/Info : Advanced Video Codec
Format profile : [email protected]
Format settings : CABAC / 10 Ref Frames
Format settings, CABAC : Yes
Format settings, ReFrames : 10 frames
Codec ID : V_MPEG4/ISO/AVC
Duration : 1 h 36 min
Bit rate : 1 833 kb/s
Width : 1 024 pixels
Height : 576 pixels
Display aspect ratio : 16:9
Frame rate mode : Constant
Frame rate : 23.976 (24000/1001) FPS
Color space : YUV
Chroma subsampling : 4:2:0
Bit depth : 8 bits
Scan type : Progressive
Bits/(Pixel*Frame) : 0.130
Stream size : 1.23 GiB (74%)
Title : RIP_BY_-=DoMiNo=-
Writing library : core 148 r2762M 90a61ec
Encoding settings : cabac=1 / ref=10 / deblock=1:-2:-2 / analyse=0x3:0x133 / me=umh / subme=11 / psy=1 / psy_rd=1.00:0.10 / mixed_ref=1 / me_range=64 / chroma_me=1 / trellis=2 / 8x8dct=1 / cqm=0 / deadzone=21,11 / fast_pskip=0 / chroma_qp_offset=-3 / threads=11 / lookahead_threads=2 / sliced_threads=0 / nr=0 / decimate=1 / interlaced=0 / bluray_compat=0 / constrained_intra=0 / bframes=11 / b_pyramid=2 / b_adapt=2 / b_bias=0 / direct=3 / weightb=1 / open_gop=0 / weightp=2 / keyint=230 / keyint_min=23 / scenecut=40 / intra_refresh=0 / rc=2pass / mbtree=0 / bitrate=1833 / ratetol=1.0 / qcomp=0.65 / qpmin=0 / qpmax=69 / qpstep=4 / cplxblur=20.0 / qblur=0.5 / ip_ratio=1.40 / pb_ratio=1.30 / aq=1:1.00
Language : English
Default : Yes
Forced : No
Color range : Limited
Color primaries : BT.709
Transfer characteristics : BT.709
Matrix coefficients : BT.709

Audio #1
ID : 2
Format : AC-3
Format/Info : Audio Coding 3
Codec ID : A_AC3
Duration : 1 h 36 min
Bit rate mode : Constant
Bit rate : 192 kb/s
Channel(s) : 2 channels
Channel positions : Front: L R
Sampling rate : 48.0 kHz
Frame rate : 31.250 FPS (1536 SPF)
Bit depth : 16 bits
Compression mode : Lossy
Stream size : 132 MiB (8%)
Title : 2.0 192Kbps (Інтер)
Language : Ukrainian
Service kind : Complete Main
Default : Yes
Forced : Yes

Audio #2
ID : 3
Format : AC-3
Format/Info : Audio Coding 3
Codec ID : A_AC3
Duration : 1 h 36 min
Bit rate mode : Constant
Bit rate : 448 kb/s
Channel(s) : 6 channels
Channel positions : Front: L C R, Side: L R, LFE
Sampling rate : 48.0 kHz
Frame rate : 31.250 FPS (1536 SPF)
Bit depth : 16 bits
Compression mode : Lossy
Stream size : 309 MiB (18%)
Title : 5.1 448Kbps (DVD R1)
Language : English
Service kind : Complete Main
Default : No
Forced : No

Text
ID : 4
Format : UTF-8
Codec ID : S_TEXT/UTF8
Codec ID/Info : UTF-8 Plain Text
Duration : 1 h 33 min
Bit rate : 75 b/s
Count of elements : 2138
Stream size : 51.2 KiB (0%)
Title : SDH, iTunes
Language : English
Default : No
Forced : No

Menu
00:00:00.000 : :Night Of A Thousand Stars
00:08:55.284 : :No Turbans For Miss Talbert
00:15:31.138 : :Across The GWB
00:20:55.546 : :Make Maggie A Murderess
00:26:24.874 : :The Mute Speaks
00:34:13.300 : :Find Jeffrey Anderson
00:41:09.882 : :Back From The Dead
00:49:02.938 : :Aunt Celeste
00:57:21.727 : :Climbing The Drainpipe
01:01:27.556 : :Mommy And Daddy
01:07:20.742 : :The Queen Of Misery
01:13:02.458 : :Ingenue From Hell
01:21:40.141 : :Live Broadcast
01:27:19.814 : :Truth Serum
01:32:19.696 : :A Storybook Ending







Подяки: MAKAPOHHIK за звукову доріжку
Джерело: &
Особиста оцінка: 0 - не дивився
ЗАЛИШАЙТЕСЬ ЯКОМОГА ДОВШЕ НА РОЗДАЧІ!

СКАЧАВ САМ - ДАЙ СКАЧАТИ ІНШИМ



Срібний реліз (на рейтинг впливає 50% завантаженого)
 Трекер:    Зареєстрований   

Завантажити / скачати фільм українською



відео для новачків



 Зареєстрований:   2018-12-09 10:44
 Розмір:   1.67 GB 
 Оцінка фільму:   7.5/10 (Голосів: 8)
   
Інші релізи
   Велика піна / Soapdish (1991) 1080p Ukr/Eng | Sub Eng staf777  1 / 0   10.29 GB   2017-02-19 21:43 
   Велика піна / Soapdish (1991) NemoInFire  1 / 0   1.39 GB   2012-06-10 18:32 
bot 
робот


З нами з: 30.09.07
Востаннє: 26.05.05
Повідомлень: 22323

2018-12-09 10:44  
Тему перенесено з Анонси релізів до форуму Фільми


staf777

gordeyko 
Новенький


З нами з: 31.08.16
Востаннє: 13.10.19
Повідомлень: 1

2019-09-07 19:14  
і де ж ці 3 що роздають?
Ваш часовий пояс: GMT + 2 Години

Нова тема   Відповісти