Микита Кожум'яка / The Dragon Spell (2016) HDTV 1080p

Нові коментарі

Нова тема   Відповісти
Автор Повідомлення
Anonymous 







2018-12-09 00:38  
Микита Кожум'яка / The Dragon Spell (2016) HDTV 1080p



Альтернативні постери








повнорозмірні зображення відкриються по кліку (з натиснутим CTRL чи кліком середньою кнопкою мишки - у новій вкладці)


Жанр: анімація, фентезі, пригодницький, комедія, сімейний
Країна: Україна



Кінокомпанія: Panama GrandPrix, Державне агентство України з питань кіно, Karandash Animation Studio, Sola Media GmbH
Режисер: Манук Депоян
Актори: Арсен Шавлюк, Віктор Андрієнко, Руслана Писанка, Сергій Сивохо, Василь Вірастюк

Сюжет:
Анімаційний фільм «Микита Кожум'яка» продовжує історію відомого героя Кирила Кожум'яки, який переміг останнього Змія, тільки головним героєм цієї історії став його 12-річний син Микита, який не володіє надзвичайною фізичною силою батька і тільки завдяки силі характеру повинен перемогти Змія і врятувати світ. У чарівному світі на Микиту і його нових друзів буде чекати багато смішних і динамічних пригод. Це дивовижна казка з захоплюючим сюжетом і щасливим кінцем, в якій розповідається про щирі почуття, справжню дружбу, і про те, що справжнє геройство не у фізичній силі, а в силі духу. Фільм знято за мотивами книги Антона Сіяніки «Микита Кожум'яка».
Офіційні українські трейлери:





Тривалість: 01:22:57
Якість: HDTV 1080p [Україномовний відеоряд]
Відео:
кодек:
розмір кадру: 1920 x 1080
бітрейт: 9694 кб/с

Аудіо: Cine+ Kids HD
мова: українська
переклад: оригінал
кодек: 5.1
бітрейт: 384 кб/с
реальний 6-ти канальний звук
Info
Код:
Video
ID                          : 1
Format                      : AVC
Format/Info                 : Advanced Video Codec
Format profile              : [email protected]
Format settings             : CABAC / 4 Ref Frames
Format settings, CABAC      : Yes
Format settings, ReFrames   : 4 frames
Codec ID                    : V_MPEG4/ISO/AVC
Duration                    : 1 h 22 min
Bit rate                    : 9 694 kb/s
Width                       : 1 920 pixels
Height                      : 1 080 pixels
Display aspect ratio        : 16:9
Frame rate mode             : Variable
Frame rate                  : 50.000 FPS
Original frame rate         : 25.000 FPS
Standard                    : Component
Color space                 : YUV
Chroma subsampling          : 4:2:0
Bit depth                   : 8 bits
Scan type                   : Interlaced
Scan type, store method     : Separated fields
Scan order                  : Top Field First
Bits/(Pixel*Frame)          : 0.093
Stream size                 : 5.62 GiB (96%)
Language                    : Ukrainian
Default                     : Yes
Forced                      : No
Color range                 : Limited
Color primaries             : BT.709
Transfer characteristics    : BT.709
Matrix coefficients         : BT.709

Audio
ID                          : 2
Format                      : AC-3
Format/Info                 : Audio Coding 3
Codec ID                    : A_AC3
Duration                    : 1 h 22 min
Bit rate mode               : Constant
Bit rate                    : 384 kb/s
Channel(s)                  : 6 channels
Channel positions           : Front: L C R, Side: L R, LFE
Sampling rate               : 48.0 kHz
Frame rate                  : 31.250 FPS (1536 SPF)
Bit depth                   : 16 bits
Compression mode            : Lossy
Stream size                 : 228 MiB (4%)
Language                    : Ukrainian
Service kind                : Complete Main
Default                     : Yes
Forced                      : Yes

Скріншоти






Джерело:


Золотий реліз (завантажене не впливає на рейтинг)
 Трекер:    Зареєстрований   

Завантажити / скачати український мультфільм



відео для новачків



 Зареєстрований:   2018-12-09 00:38
 Розмір:   5.84 GB 
 Оцінка мультфільму:   10/10 (Голосів: 7)
   
Інші релізи
   Микита Кожум'яка / The Dragon Spell (2016) Gelios  51 / 0   1.37 GB   2017-07-07 21:53 
   Микита Кожум'яка / The Dragon Spell (2016) AVC igor911  11 / 0   1.96 GB   2017-07-04 17:01 
   Микита Кожум'яка / The Dragon Spell (2016) 720p igor911  12 / 0   2.54 GB   2017-07-04 15:10 
   Микита Кожум'яка / The Dragon Spell (2016) 1080p igor911  53 / 0   3.21 GB   2017-07-04 14:18 
   Микита Кожум'яка / The Dragon Spell (2016) -AVC sergiyko.5  22 / 0   1.83 GB   2017-05-16 17:58 
   Микита Кожум'яка / The Dragon Spell (2016) DVDRemux krigg070  8 / 0   3.35 GB   2017-05-16 16:45 
staf777 
Попереджень: 1
Попереджень: 1 


З нами з: 16.11.16
Востаннє: 11.12.18
Повідомлень: 1892

2018-12-09 07:58  
Прочитав як Микита Комуняка Happy
Ваш часовий пояс: GMT + 2 Години

Нова тема   Відповісти