Дитя пітьми / Orphan (2009) 1080p H.265 Ukr/Eng | Sub Ukr/Eng

Нові коментарі

Нова тема   Відповісти
Автор Повідомлення
-Star-Lord- 
VIP


З нами з: 09.08.18
Востаннє: 11.12.18
Повідомлень: 331

2018-12-08 19:00  
Дитя пітьми / Orphan (2009) 1080p H.265 Ukr/Eng | Sub Ukr/Eng

Дитя пітьми / Orphan (2009) 1080p H.265 Ukr/Eng | Sub Ukr/Eng


Жанр: жахи, трилер, детектив
Країна: США, Німеччина, Канада, Франція
Кінокомпанія: Warner Bros. Pictures, Dark Castle Entertainment, DCP Orphan Productions, Don Carmody Productions, Studio Babelsberg Motion Pictures GmbH, Studio Canal, Appian Way
Режисер: Жауме Серра
Актори: Віра Фарміґа, Пітер Сарсгаард, Ізабель Фюрман, Сі Сі Ейч Паундер, Джиммі Беннет, Марго Мартіндейл, Карел Роден, Аріана Енджинір, Розмарі Дансмор...

Сюжет:
Подружня пара, яка зовсім нещодавно втратила немовля, удочеряє дев'ятирічну дівчинку, яка виявляється зовсім не такою милою і невинною, як це могло здатися на перший погляд.

Тривалість: 02:02:55
Якість:
Відео:
кодек: H.265 (HEVC)
розмір кадру: 1920 x 1080
бітрейт: 5 935 кб/с
частота кадрів: 23.976 fps
бітова глибина: 10 біт
Увага! Перед завантаженням переконайтесь, що ваш пристрій відтворення (та/або ПЗ) підтримує H.265 (HEVC)

Аудіо # 1:
мова: українська
переклад: багатоголосий закадровий
кодек: AC-3 2.0
бітрейт: 192 кб/с

Аудіо # 2:
мова: англійська
переклад: оригінал
кодек: AC-3 5.1
бітрейт: 448 кб/с

Субтитри # 1:
мова: українська (Full),
тип: програмні (м'які)
формат: *.srt

Субтитри # 2:
мова: англійська (Full),
тип: програмні (м'які)
формат: *.srt


Info
Код:
General
Unique ID                                : 74196685284244311386744856680889221253 (0x37D1C30515696C7DEA5BB99C5E228085)
Complete name                            : D:\Video\Orphan (2009) 1080p H.265 [UKR_ENG].
Format                                   :
Format version                           : Version 4 / Version 2
File size                                : 5.65 GiB
Duration                                 : 2 h 3 min
Overall bit rate                         : 6 570 kb/s
Movie name                               : Orphan (2009)
Encoded date                             : UTC 2018-12-08 16:39:13
Writing application                      : v20.0.0 ('I Am The Sun') 32-bit
Writing library                          : libebml v1.3.5 + v1.4.8
Cover                                    : Yes
Attachments                              : Cover.jpg

Video
ID                                       : 1
Format                                   : HEVC
Format/Info                              : High Efficiency Video Coding
Format profile                           : Main [email protected]@High
Codec ID                                 : V_MPEGH/ISO/HEVC
Duration                                 : 2 h 2 min
Bit rate                                 : 5 935 kb/s
Width                                    : 1 920 pixels
Height                                   : 1 080 pixels
Display aspect ratio                     : 16:9
Frame rate mode                          : Constant
Frame rate                               : 23.976 (24000/1001) FPS
Color space                              : YUV
Chroma subsampling                       : 4:2:0
Bit depth                                : 10 bits
Bits/(Pixel*Frame)                       : 0.119
Stream size                              : 5.10 GiB (90%)
Title                                    : Orphan (2009)
Writing library                          : x265 2.8+74-fd517ae68f93:[Windows][GCC 7.3.0][64 bit] 10bit
Encoding settings                        : cpuid=1049583 / frame-threads=5 / numa-pools=4 / wpp / no-pmode / no-pme / no-psnr / no-ssim / log-level=3 / input-csp=1 / input-res=1920x1080 / interlace=0 / total-frames=0 / level-idc=41 / high-tier=1 / uhd-bd=0 / ref=5 / allow-non-conformance / no-repeat-headers / annexb / no-aud / no-hrd / info / hash=0 / no-temporal-layers / open-gop / min-keyint=24 / keyint=240 / gop-lookahead=0 / bframes=8 / b-adapt=2 / b-pyramid / bframe-bias=0 / rc-lookahead=40 / lookahead-slices=6 / scenecut=40 / radl=0 / no-intra-refresh / ctu=64 / min-cu-size=8 / no-rect / no-amp / max-tu-size=32 / tu-inter-depth=1 / tu-intra-depth=1 / limit-tu=0 / rdoq-level=0 / dynamic-rd=0.00 / no-ssim-rd / signhide / no-tskip / nr-intra=0 / nr-inter=0 / no-constrained-intra / strong-intra-smoothing / max-merge=2 / limit-refs=3 / no-limit-modes / me=3 / subme=7 / merange=57 / temporal-mvp / weightp / no-weightb / no-analyze-src-pics / deblock=-3:-3 / no-sao / no-sao-non-deblock / rd=3 / no-early-skip / rskip / no-fast-intra / no-tskip-fast / no-cu-lossless / no-b-intra / no-splitrd-skip / rdpenalty=0 / psy-rd=2.00 / psy-rdoq=0.00 / no-rd-refine / no-lossless / cbqpoffs=0 / crqpoffs=0 / rc=crf / crf=21.0 / qcomp=0.60 / qpstep=4 / stats-write=0 / stats-read=0 / vbv-maxrate=50000 / vbv-bufsize=50000 / vbv-init=0.9 / crf-max=0.0 / crf-min=0.0 / ipratio=1.40 / pbratio=1.30 / aq-mode=1 / aq-strength=1.00 / cutree / zone-count=0 / no-strict-cbr / qg-size=32 / no-rc-grain / qpmax=69 / qpmin=0 / no-const-vbv / sar=1 / overscan=0 / videoformat=5 / range=0 / colorprim=1 / transfer=1 / colormatrix=1 / chromaloc=0 / display-window=0 / max-cll=0,0 / min-luma=0 / max-luma=1023 / log2-max-poc-lsb=8 / vui-timing-info / vui-hrd-info / slices=1 / no-opt-qp-pps / no-opt-ref-list-length-pps / no-multi-pass-opt-rps / scenecut-bias=0.05 / no-opt-cu-delta-qp / no-aq-motion / no-hdr / no-hdr-opt / no-dhdr10-opt / no-idr-recovery-sei / analysis-reuse-level=5 / scale-factor=0 / refine-intra=0 / refine-inter=0 / refine-mv=0 / no-limit-sao / ctu-info=0 / no-lowpass-dct / refine-mv-type=0 / copy-pic=1 / max-ausize-factor=1.0 / no-dynamic-refine / no-single-sei
Language                                 : English
Default                                  : Yes
Forced                                   : No
Color range                              : Limited
Color primaries                          : BT.709
Transfer characteristics                 : BT.709
Matrix coefficients                      : BT.709

Audio #1
ID                                       : 2
Format                                   : AC-3
Format/Info                              : Audio Coding 3
Codec ID                                 : A_AC3
Duration                                 : 2 h 2 min
Bit rate mode                            : Constant
Bit rate                                 : 192 kb/s
Channel(s)                               : 2 channels
Channel positions                        : Front: L R
Sampling rate                            : 48.0 kHz
Frame rate                               : 31.250 FPS (1536 SPF)
Bit depth                                : 16 bits
Compression mode                         : Lossy
Stream size                              : 169 MiB (3%)
Title                                    : БЗ - ICTV
Language                                 : Ukrainian
Service kind                             : Complete Main
Default                                  : Yes
Forced                                   : Yes

Audio #2
ID                                       : 3
Format                                   : AC-3
Format/Info                              : Audio Coding 3
Codec ID                                 : A_AC3
Duration                                 : 2 h 3 min
Bit rate mode                            : Constant
Bit rate                                 : 448 kb/s
Channel(s)                               : 6 channels
Channel positions                        : Front: L C R, Side: L R, LFE
Sampling rate                            : 48.0 kHz
Frame rate                               : 31.250 FPS (1536 SPF)
Bit depth                                : 16 bits
Compression mode                         : Lossy
Stream size                              : 394 MiB (7%)
Title                                    : Original
Language                                 : English
Service kind                             : Complete Main
Default                                  : No
Forced                                   : No

Text #1
ID                                       : 4
Format                                   : UTF-8
Codec ID                                 : S_TEXT/UTF8
Codec ID/Info                            : UTF-8 Plain Text
Duration                                 : 1 h 55 min
Bit rate                                 : 57 b/s
Count of elements                        : 1093
Stream size                              : 48.9 KiB (0%)
Title                                    : Full
Language                                 : Ukrainian
Default                                  : Yes
Forced                                   : No

Text #2
ID                                       : 5
Format                                   : UTF-8
Codec ID                                 : S_TEXT/UTF8
Codec ID/Info                            : UTF-8 Plain Text
Duration                                 : 1 h 54 min
Bit rate                                 : 42 b/s
Count of elements                        : 1049
Stream size                              : 35.6 KiB (0%)
Title                                    : Full
Language                                 : English
Default                                  : No
Forced                                   : No

Menu
00:00:00.000                             : :Глава 1
00:05:00.000                             : :Глава 2
00:10:00.000                             : :Глава 3
00:15:00.000                             : :Глава 4
00:20:00.000                             : :Глава 5
00:25:00.000                             : :Глава 6
00:30:00.000                             : :Глава 7
00:35:00.000                             : :Глава 8
00:40:00.000                             : :Глава 9
00:45:00.000                             : :Глава 10
00:50:00.000                             : :Глава 11
00:55:00.000                             : :Глава 12
01:00:00.000                             : :Глава 13
01:05:00.000                             : :Глава 14
01:10:00.000                             : :Глава 15
01:15:00.000                             : :Глава 16
01:20:00.000                             : :Глава 17
01:25:00.000                             : :Глава 18
01:30:00.000                             : :Глава 19
01:35:00.000                             : :Глава 20
01:40:00.000                             : :Глава 21
01:45:00.000                             : :Глава 22
01:50:00.000                             : :Глава 23
01:55:00.000                             : :Глава 24
02:00:00.000                             : :Глава 25
Світлини




Джерело:
Особиста оцінка: 10 - без зайвих вагань рекомендую всім!


>>> Усі мої релізи <<<



 Трекер:    Зареєстрований   

Завантажити / скачати фільм українською



відео для новачків



 Зареєстрований:   2018-12-08 19:00
 Розмір:   5.65 GB 
 Оцінка фільму:   10/10 (Голосів: 2)
   
Інші релізи
   Дитя пітьми / Orphan (2009) Remux 1080p Ukr/Eng | Sub Ukr/Eng IronBee  0 / 1   18.15 GB   2018-03-01 08:59 
   Дитя пітьми / Orphan (2009) 1080p Ukr/Eng | Sub Ukr/Eng staf777  2 / 0   8.87 GB   2018-01-18 22:21 
   Дитя пітьми / Orphan (2009) Ukr | Sub Ukr/Eng patriot2305  1 / 0   1.29 GB   2012-07-12 19:28 
   Дитя пітьми / Orphan (2009) Ukr/Eng | Sub Ukr/Eng igrik09  1 / 1   2.35 GB   2012-07-12 19:02 
   Дитя пітьми / Orphan (2009) AVC Ukr/Eng | Sub Ukr/Eng igrik09  2 / 0   2.56 GB   2012-07-10 19:52 
igor911 
Відео Гуртом
Відео Гуртом


З нами з: 18.01.08
Востаннє: 11.12.18
Повідомлень: 11560

2018-12-08 20:15  
-Star-Lord- написано:
глибина кольору: 0.119 BPP (Bits Per Pixel)

прибери, будь ласка, це безглуздя з описів своїх релізів. Співвідношення Bits Per Pixel немає жодного стосунку ні до кольору, ні до його глибини.

Ваш часовий пояс: GMT + 2 Години

Нова тема   Відповісти