Області темряви / Limitless [Unrated Extended Cut] (2011) 1080p H.265 2xUkr/Eng | Sub 2xUkr/Eng

Нові коментарі

Нова тема   Відповісти
Автор Повідомлення
-Star-Lord- 
VIP


З нами з: 09.08.18
Востаннє: 11.12.18
Повідомлень: 331

2018-12-08 18:52  
Області темряви / Limitless [Unrated Extended Cut] (2011) 1080p H.265 2xUkr/Eng | Sub 2xUkr/Eng

Області темряви / Limitless [Unrated Extended Cut] (2011) 1080p H.265 2xUkr/Eng | Sub 2xUkr/Eng


Жанр: детектив, фантастика, трилер
Країна: США
Кінокомпанія: Relativity Media, Virgin Produced, Rogue, Many Rivers Productions, Boy of the Year, Intermedia
Режисер: Ніл Бергер / Neil Burger
Актори: Бредлі Купер / Bradley Cooper, Роберт Де Ніро / Robert De Niro, Еббі Корніш / Abbie Cornish, Ендрю Говард / Andrew Howard, Анна Фріл / Anna Friel, Джоні Вайтворт / Johnny Whitworth, Томас Арана / Tomas Arana, Роберт Джон Бьорк / Robert John Burke, Даррен Голдштейн / Darren Goldstein, Нед Ейзенберг / Ned Eisenberg, Т.В. Карпіо / T.V. Carpio, Річард Бакінс / Richard Bekins, Патрісія Калембер / Patricia Kalember, Сінді Кац / Cindy Katz, Браян Ентоні Bілсон / Brian Anthony Wilson

Сюжет:
Едді - творча людина, у якої продовжується тривала творча депресія. Аби здолати цю проблему він, за допомогою свого друга-науковця, вводить собі новий, ще не досліджений препарат для покращення діяльності мозку. Результатом стала фантастична працездатність - мозок краще за найпотужніші комп'ютери обробляв інформацію і подавав фантазії найкращі ідеї. Та такі здібності швидко привернули увагу не дуже чесних людей, зокрема магната Карла ван Луна, який вирішив, що Едді легко заробить для нього кілька мільярдів, якщо його як слід простимулювати. Тепер у Едді замість однієї інтелектуальної проблеми має дві практичні - втеча від посіпак Карла і боротьба з неочікуваною побічною дією, яка проявляється все сильніше.

Тривалість: 01:45:32
Якість:
Відео:
кодек: H.265 (HEVC)
розмір кадру: 1920 x 800
бітрейт: 6 048 кб/с
частота кадрів: 23.976 fps
біт піксель: 0.164 BPP (Bits Per Pixel)
бітова глибина: 10 біт
Увага! Перед завантаженням переконайтесь, що ваш пристрій відтворення (та/або ПЗ) підтримує H.265 (HEVC)

Аудіо # 1:
мова: українська
переклад: багатоголосий закадровий
кодек: AC-3 2.0
бітрейт: 192 кб/с

Аудіо # 2:
мова: українська
переклад: багатоголосий закадровий
кодек: AC-3 5.1
бітрейт: 448 кб/с

Аудіо # 3:
мова: англійська
переклад: оригінал
кодек: AC-3 5.1
бітрейт: 448 кб/с

Субтитри # 1:
мова: українська (Full by MarianB),
тип: програмні (м'які)
формат: *.srt

Субтитри # 2:
мова: українська (Full by Gashik),
тип: програмні (м'які)
формат: *.srt

Субтитри # 3:
мова: англійська (Full),
тип: програмні (м'які)
формат: *.srt


Info
Код:
General
Unique ID                                : 321254360753603979048743865171119212174 (0xF1AF56DD48D979072137CA16F8F8868E)
Complete name                            : D:\Video\Limitless (2011) [Unrated, Extended] 1080p H.265 [2xUKR_ENG].
Format                                   :
Format version                           : Version 4 / Version 2
File size                                : 5.26 GiB
Duration                                 : 1 h 45 min
Overall bit rate                         : 7 138 kb/s
Movie name                               : Limitless (2011) [Unrated, Extended]
Encoded date                             : UTC 2018-12-08 16:30:37
Writing application                      : v20.0.0 ('I Am The Sun') 32-bit
Writing library                          : libebml v1.3.5 + v1.4.8
Cover                                    : Yes
Attachments                              : Cover.jpg

Video
ID                                       : 1
Format                                   : HEVC
Format/Info                              : High Efficiency Video Coding
Format profile                           : Main [email protected]@Main
Codec ID                                 : V_MPEGH/ISO/HEVC
Duration                                 : 1 h 45 min
Bit rate                                 : 6 048 kb/s
Width                                    : 1 920 pixels
Height                                   : 800 pixels
Display aspect ratio                     : 2.40:1
Frame rate mode                          : Constant
Frame rate                               : 23.976 (24000/1001) FPS
Color space                              : YUV
Chroma subsampling                       : 4:2:0
Bit depth                                : 10 bits
Bits/(Pixel*Frame)                       : 0.164
Stream size                              : 4.46 GiB (85%)
Title                                    : Limitless (2011) [Unrated, Extended]
Writing library                          : x265 2.9+2-7e978ed93d60:[Windows][GCC 8.2.0][64 bit] 10bit
Encoding settings                        : cpuid=1111039 / frame-threads=3 / numa-pools=8 / wpp / no-pmode / no-pme / no-psnr / no-ssim / log-level=2 / input-csp=1 / input-res=1920x800 / interlace=0 / total-frames=151836 / level-idc=0 / high-tier=1 / uhd-bd=0 / ref=4 / no-allow-non-conformance / no-repeat-headers / annexb / no-aud / no-hrd / info / hash=0 / no-temporal-layers / open-gop / min-keyint=23 / keyint=250 / gop-lookahead=0 / bframes=8 / b-adapt=2 / b-pyramid / bframe-bias=0 / rc-lookahead=80 / lookahead-slices=4 / scenecut=40 / radl=0 / no-intra-refresh / ctu=64 / min-cu-size=8 / rect / no-amp / max-tu-size=32 / tu-inter-depth=1 / tu-intra-depth=1 / limit-tu=0 / rdoq-level=2 / dynamic-rd=0.00 / no-ssim-rd / signhide / no-tskip / nr-intra=0 / nr-inter=0 / no-constrained-intra / no-strong-intra-smoothing / max-merge=3 / limit-refs=3 / limit-modes / me=3 / subme=5 / merange=57 / temporal-mvp / weightp / no-weightb / no-analyze-src-pics / deblock=-3:-3 / no-sao / no-sao-non-deblock / rd=4 / no-early-skip / rskip / no-fast-intra / no-tskip-fast / no-cu-lossless / no-b-intra / no-splitrd-skip / rdpenalty=0 / psy-rd=2.00 / psy-rdoq=1.00 / no-rd-refine / no-lossless / cbqpoffs=0 / crqpoffs=0 / rc=crf / crf=19.5 / qcomp=0.60 / qpstep=4 / stats-write=0 / stats-read=0 / ipratio=1.40 / pbratio=1.30 / aq-mode=3 / aq-strength=1.00 / cutree / zone-count=0 / no-strict-cbr / qg-size=32 / no-rc-grain / qpmax=69 / qpmin=0 / no-const-vbv / sar=0 / overscan=0 / videoformat=5 / range=0 / colorprim=2 / transfer=2 / colormatrix=2 / chromaloc=0 / display-window=0 / max-cll=0,0 / min-luma=0 / max-luma=1023 / log2-max-poc-lsb=8 / vui-timing-info / vui-hrd-info / slices=1 / no-opt-qp-pps / no-opt-ref-list-length-pps / no-multi-pass-opt-rps / scenecut-bias=0.05 / no-opt-cu-delta-qp / aq-motion / no-hdr / no-hdr-opt / no-dhdr10-opt / no-idr-recovery-sei / analysis-reuse-level=5 / scale-factor=0 / refine-intra=0 / refine-inter=0 / refine-mv=0 / no-limit-sao / ctu-info=0 / no-lowpass-dct / refine-mv-type=0 / copy-pic=1 / max-ausize-factor=1.0 / no-dynamic-refine / no-single-sei
Default                                  : Yes
Forced                                   : No

Audio #1
ID                                       : 2
Format                                   : AC-3
Format/Info                              : Audio Coding 3
Codec ID                                 : A_AC3
Duration                                 : 1 h 45 min
Bit rate mode                            : Constant
Bit rate                                 : 192 kb/s
Channel(s)                               : 2 channels
Channel positions                        : Front: L R
Sampling rate                            : 48.0 kHz
Frame rate                               : 31.250 FPS (1536 SPF)
Bit depth                                : 16 bits
Compression mode                         : Lossy
Stream size                              : 145 MiB (3%)
Title                                    : БЗ - Воля Кіно
Language                                 : Ukrainian
Service kind                             : Complete Main
Default                                  : Yes
Forced                                   : No

Audio #2
ID                                       : 3
Format                                   : AC-3
Format/Info                              : Audio Coding 3
Codec ID                                 : A_AC3
Duration                                 : 1 h 45 min
Bit rate mode                            : Constant
Bit rate                                 : 448 kb/s
Channel(s)                               : 6 channels
Channel positions                        : Front: L C R, Side: L R, LFE
Sampling rate                            : 48.0 kHz
Frame rate                               : 31.250 FPS (1536 SPF)
Bit depth                                : 16 bits
Compression mode                         : Lossy
Stream size                              : 338 MiB (6%)
Title                                    : БЗ - M&M
Language                                 : Ukrainian
Service kind                             : Complete Main
Default                                  : No
Forced                                   : No

Audio #3
ID                                       : 4
Format                                   : AC-3
Format/Info                              : Audio Coding 3
Codec ID                                 : A_AC3
Duration                                 : 1 h 45 min
Bit rate mode                            : Constant
Bit rate                                 : 448 kb/s
Channel(s)                               : 6 channels
Channel positions                        : Front: L C R, Side: L R, LFE
Sampling rate                            : 48.0 kHz
Frame rate                               : 31.250 FPS (1536 SPF)
Bit depth                                : 16 bits
Compression mode                         : Lossy
Stream size                              : 338 MiB (6%)
Title                                    : Original
Language                                 : English
Service kind                             : Complete Main
Default                                  : No
Forced                                   : No

Text #1
ID                                       : 5
Format                                   : UTF-8
Codec ID                                 : S_TEXT/UTF8
Codec ID/Info                            : UTF-8 Plain Text
Duration                                 : 1 h 38 min
Bit rate                                 : 96 b/s
Count of elements                        : 1103
Stream size                              : 69.2 KiB (0%)
Title                                    : Full by MarianB
Language                                 : Ukrainian
Default                                  : Yes
Forced                                   : No

Text #2
ID                                       : 6
Format                                   : UTF-8
Codec ID                                 : S_TEXT/UTF8
Codec ID/Info                            : UTF-8 Plain Text
Duration                                 : 1 h 38 min
Bit rate                                 : 100 b/s
Count of elements                        : 1213
Stream size                              : 72.0 KiB (0%)
Title                                    : Full by Gashik
Language                                 : Ukrainian
Default                                  : No
Forced                                   : No

Text #3
ID                                       : 7
Format                                   : UTF-8
Codec ID                                 : S_TEXT/UTF8
Codec ID/Info                            : UTF-8 Plain Text
Duration                                 : 1 h 38 min
Bit rate                                 : 64 b/s
Count of elements                        : 1204
Stream size                              : 46.3 KiB (0%)
Title                                    : Full
Language                                 : English
Default                                  : No
Forced                                   : No

Menu
00:00:00.000                             : en:(01)00:00:00:000
00:03:49.103                             : en:(02)00:03:49:103
00:06:55.915                             : en:(03)00:06:55:915
00:11:05.706                             : en:(04)00:11:05:706
00:16:28.362                             : en:(05)00:16:28:362
00:20:40.072                             : en:(06)00:20:40:072
00:24:20.834                             : en:(07)00:24:20:834
00:28:55.859                             : en:(08)00:28:55:859
00:34:09.172                             : en:(09)00:34:09:172
00:38:20.172                             : en:(10)00:38:20:172
00:42:26.418                             : en:(11)00:42:26:418
00:47:03.820                             : en:(12)00:47:03:820
00:51:24.247                             : en:(13)00:51:24:247
00:54:45.532                             : en:(14)00:54:45:532
00:59:36.948                             : en:(15)00:59:36:948
01:05:59.663                             : en:(16)01:05:59:663
01:09:07.935                             : en:(17)01:09:07:935
01:12:11.952                             : en:(18)01:12:11:952
01:15:12.299                             : en:(19)01:15:12:299
01:18:52.560                             : en:(20)01:18:52:560
01:22:20.350                             : en:(21)01:22:20:350
01:27:53.643                             : en:(22)01:27:53:643
01:32:29.960                             : en:(23)01:32:29:960
01:39:01.643                             : en:(24)01:39:01:643
01:45:33.743                             : en:(25)01:45:33:743
Світлини




Джерело:
Особиста оцінка: 10 - без зайвих вагань рекомендую всім!


>>> Усі мої релізи <<<



Авторський реліз (завантажувати можна без реєстрації)
 Трекер:    Зареєстрований   

Завантажити / скачати фільм українською



відео для новачків



 Зареєстрований:   2018-12-08 18:52
 Розмір:   5.26 GB 
 Оцінка фільму:   10/10 (Голосів: 7)
   
Ваш часовий пояс: GMT + 2 Години

Нова тема   Відповісти