Містер Крутий / Yat goh hiu yan / Mr. Nice Guy (1997) 1080p 2xUkr/Eng | sub Eng

Нові коментарі

Нова тема   Відповісти
Автор Повідомлення
Anonymous 







2018-12-08 17:22  
Містер Крутий / Yat goh hiu yan / Mr. Nice Guy (1997) 1080p 2xUkr/Eng | sub Eng

Містер Крутий / Yat goh hiu yan / Mr. Nice Guy (1997) 1080p 2xUkr/Eng | sub Eng


Жанр: кримінальний, бойовик, комедія
Країна: Гонконг, Австралія, США



Кінокомпанія: Golden Harvest Company
Режисер: Саммо Хунг Кам-Бо
Актори: Джекі Чан, Річард Нортон, Мікі Лі, Карен МакЛімонт, Габріель Фіцпатрік, Вінс Полетто, Беррі Отто, Саммо Хунг Кам-Бо

Сюжет:
Ведучий кулінарного телешоу в Мельбурні Джекі випадково стає власником відеокасети із записом кривавих розборок між бандами наркоторгівців. На цьому спокійні дні для Джекі закінчилися й перетворилися в нескінченну гонку на виживання. Він би із задоволенням віддав касету, якби знав, де вона. Але ті не задавали питань, а в Джекі однаково не було відповідей. Зате було треноване тіло й блискавичні кулаки.


Тривалість: 01:28:18
Якість:
Відео:
кодек:
розмір кадру: 1912 х 788
бітрейт: 4608 кб/с

Аудіо # 1:

переклад: двоголосий закадровий
кодек: 2.0
бітрейт: 192 кб/с

Аудіо # 2:
мова: українська
переклад: багатоголосий закадровий
кодек: 2.0
бітрейт: 192 кб/с

Аудіо # 3:
мова: англійська
переклад: оригінал
кодек: 5.1
бітрейт: 384 кб/с

Субтитри:
мова: англійська
тип: програмні (м'які)
формат: *.srt
Info
General
Unique ID : 114125983877765917954970754001759981507 (0x55DBDD6F37835F6A1FA2A921F1F94FC3)
Complete name : E:\films\Mr. Nice Guy (1997) 1080p [2xUkr.Eng] Hurtom.
Format :
Format version : Version 4 / Version 2
File size : 3.32 GiB
Duration : 1 h 28 min
Overall bit rate : 5 378 kb/s
Encoded date : UTC 2018-12-08 09:02:16
Writing application : v21.0.0 ('Tardigrades Will Inherit The Earth') 64-bit
Writing library : libebml v1.3.5 + v1.4.8

Video
ID : 1
Format : AVC
Format/Info : Advanced Video Codec
Format profile : [email protected]
Format settings, CABAC : Yes
Format settings, ReFrames : 5 frames
Codec ID : V_MPEG4/ISO/AVC
Duration : 1 h 28 min
Bit rate : 4 608 kb/s
Width : 1 912 pixels
Height : 788 pixels
Display aspect ratio : 2.40:1
Frame rate mode : Constant
Frame rate : 23.976 FPS
Color space : YUV
Chroma subsampling : 4:2:0
Bit depth : 8 bits
Scan type : Progressive
Bits/(Pixel*Frame) : 0.128
Stream size : 2.84 GiB (86%)
Language : English
Default : Yes
Forced : No
Color range : Limited
Color primaries : BT.709
Transfer characteristics : BT.709
Matrix coefficients : BT.709

Audio #1
ID : 2
Format : AC-3
Format/Info : Audio Coding 3
Mode extension : CM (complete main)
Format settings, Endianness : Big
Codec ID : A_AC3
Duration : 1 h 28 min
Bit rate mode : Constant
Bit rate : 192 kb/s
Channel(s) : 2 channels
Channel positions : Front: L R
Sampling rate : 48.0 kHz
Frame rate : 31.250 FPS (1536 spf)
Bit depth : 16 bits
Compression mode : Lossy
Stream size : 121 MiB (4%)
Title : ICTV channel
Language : Ukrainian
Default : Yes
Forced : No

Audio #2
ID : 3
Format : AC-3
Format/Info : Audio Coding 3
Mode extension : CM (complete main)
Format settings, Endianness : Big
Codec ID : A_AC3
Duration : 1 h 28 min
Bit rate mode : Constant
Bit rate : 192 kb/s
Channel(s) : 2 channels
Channel positions : Front: L R
Sampling rate : 48.0 kHz
Frame rate : 31.250 FPS (1536 spf)
Bit depth : 16 bits
Compression mode : Lossy
Stream size : 121 MiB (4%)
Title : INTER channel
Language : Ukrainian
Default : No
Forced : No

Audio #3
ID : 4
Format : AC-3
Format/Info : Audio Coding 3
Mode extension : CM (complete main)
Format settings, Endianness : Big
Codec ID : A_AC3
Duration : 1 h 28 min
Bit rate mode : Constant
Bit rate : 384 kb/s
Channel(s) : 6 channels
Channel positions : Front: L C R, Side: L R, LFE
Sampling rate : 48.0 kHz
Frame rate : 31.250 FPS (1536 spf)
Bit depth : 16 bits
Compression mode : Lossy
Stream size : 243 MiB (7%)
Title : Original
Language : English
Default : No
Forced : No

Menu
00:00:00.000 : en:Main Title/Chef Jackie
00:03:09.000 : en:Dealing with the Demons
00:11:39.000 : en:Wedding Party
00:19:56.000 : en:Miki
00:31:42.000 : en:"I've Got to Have that Tape"
00:37:24.000 : en:Giancarlo's Orders
00:43:16.000 : en:The Exchange
00:49:42.000 : en:"Somebody Need Help?"
00:55:15.000 : en:Construction Site
01:03:33.000 : en:Unleashed
01:19:36.000 : en:Outtakes
01:23:40.000 : en:End Credits
Скріншоти








Дякую Arsenfpu за звук, а також РОМЕО за запис трансляції.

Джерело: &


Срібний реліз (на рейтинг впливає 50% завантаженого)
 Трекер:    Зареєстрований   

Завантажити / скачати фільм українською



відео для новачків



 Зареєстрований:   2018-12-08 17:22
 Розмір:   3.32 GB 
 Оцінка фільму:   10/10 (Голосів: 4)
   
Інші релізи
Ваш часовий пояс: GMT + 2 Години

Нова тема   Відповісти