Аксель / A-X-L (2018) 1080 Ukr/Eng

Нові коментарі

Нова тема   Відповісти
Автор Повідомлення
staf777 
Попереджень: 1
Попереджень: 1 


З нами з: 16.11.16
Востаннє: 11.12.18
Повідомлень: 1892

2018-12-08 16:34  
Аксель / A-X-L (2018) 1080p Ukr/Eng

Аксель / A-X-L (2018) 1080 Ukr/Eng


Жанр: бойовик, пригоди, сімейний, фантастика
Країна: США



Кінокомпанія: Global Road Entertainment, Lakeshore Entertainment, Phantom Four Films
Режисер: Олівер Дейлі
Актори: Томас Джейн, Беккі Г., Тед МакГінлі, Лоу Тейлор Пуччі, Домінік Рейнс, Алекс Нюстадтер, Ерік Етебарі

Сюжет:
Підліток Майлз випадково знаходить високотехнологічного військового робопса на ім'я A-X-L. Наділений просунутим штучним інтелектом та добрим собачим серцем, пес моментально прив'язується до Майлза задля більшого гніву вчених, які створили металевого звіра. Бажаючи захистити кращого друга людини, Майлз за підтримки винахідливої дівчини Сари вирішує виступити проти військових.


Тривалість: 01:38:55
Якість: 1080p
Відео:
кодек:
розмір кадру: 1920x1080
бітрейт: 6490 кб/с

Аудіо # 1:
мова: українська
переклад: багатоголосий закадровий
кодек: 2.0 [стерео]
бітрейт: 192 кб/с

Аудіо # 2:
мова: англійська
переклад: оригінал
кодек: 5.1
бітрейт: 384 кб/с
Info
General
Unique ID : 201377088895519049292448176897291396779 (0x977FD10A30B4F459D3A56ECE814726AB)
Complete name : N:\Фільми HD\Фантастика\A-X-L (2018) 1080p [UKR][ENG][Hurtom].
Format :
Format version : Version 4 / Version 2
File size : 4.87 GiB
Duration : 1 h 38 min
Overall bit rate mode : Variable
Overall bit rate : 7 051 kb/s
Movie name : A-X-L (2018) 1080p [UKR][ENG][Hurtom]
Encoded date : UTC 2018-12-08 18:06:02
Writing application : v24.0.0 ('Beyond The Pale') 64-bit
Writing library : libebml v1.3.6 + v1.4.9
Cover : Yes
Attachments : cover.jpg

Video
ID : 1
Format : AVC
Format/Info : Advanced Video Codec
Format profile : [email protected]
Format settings : CABAC / 3 Ref Frames
Format settings, CABAC : Yes
Format settings, ReFrames : 3 frames
Codec ID : V_MPEG4/ISO/AVC
Duration : 1 h 38 min
Bit rate mode : Variable
Bit rate : 6 490 kb/s
Maximum bit rate : 9 735 kb/s
Width : 1 920 pixels
Height : 1 080 pixels
Display aspect ratio : 16:9
Frame rate mode : Constant
Frame rate : 23.976 (24000/1001) FPS
Color space : YUV
Chroma subsampling : 4:2:0
Bit depth : 8 bits
Scan type : Progressive
Bits/(Pixel*Frame) : 0.131
Stream size : 4.47 GiB (92%)
Writing library : core 148 r2715 7e75228
Encoding settings : cabac=1 / ref=3 / deblock=1:0:0 / analyse=0x1:0x111 / me=umh / subme=10 / psy=1 / psy_rd=1.00:0.00 / mixed_ref=1 / me_range=24 / chroma_me=1 / trellis=2 / 8x8dct=0 / cqm=0 / deadzone=21,11 / fast_pskip=1 / chroma_qp_offset=-2 / threads=6 / lookahead_threads=1 / sliced_threads=0 / nr=0 / decimate=1 / interlaced=0 / bluray_compat=0 / stitchable=1 / constrained_intra=0 / bframes=2 / b_pyramid=0 / b_adapt=2 / b_bias=0 / direct=3 / weightb=1 / open_gop=0 / weightp=2 / keyint=48 / keyint_min=25 / scenecut=0 / intra_refresh=0 / rc_lookahead=48 / rc=2pass / mbtree=1 / bitrate=6490 / ratetol=1.0 / qcomp=0.50 / qpmin=6 / qpmax=51 / qpstep=4 / cplxblur=20.0 / qblur=0.5 / vbv_maxrate=9735 / vbv_bufsize=12980 / nal_hrd=vbr / filler=0 / ip_ratio=1.40 / aq=1:1.00
Default : Yes
Forced : No

Audio #1
ID : 2
Format : AC-3
Format/Info : Audio Coding 3
Codec ID : A_AC3
Duration : 1 h 38 min
Bit rate mode : Constant
Bit rate : 192 kb/s
Channel(s) : 2 channels
Channel positions : Front: L R
Sampling rate : 48.0 kHz
Frame rate : 31.250 FPS (1536 SPF)
Bit depth : 16 bits
Compression mode : Lossy
Stream size : 136 MiB (3%)
Language : Ukrainian
Service kind : Complete Main
Default : Yes
Forced : Yes

Audio #2
ID : 3
Format : AC-3
Format/Info : Audio Coding 3
Codec ID : A_AC3
Duration : 1 h 38 min
Bit rate mode : Constant
Bit rate : 384 kb/s
Channel(s) : 6 channels
Channel positions : Front: L C R, Side: L R, LFE
Sampling rate : 48.0 kHz
Frame rate : 31.250 FPS (1536 SPF)
Bit depth : 16 bits
Compression mode : Lossy
Stream size : 272 MiB (5%)
Language : English
Service kind : Complete Main
Default : No
Forced : No





Джерело: &
Особиста оцінка: 0 - не дивився


 Трекер:    Зареєстрований   

Завантажити / скачати фільм українською



відео для новачків



 Зареєстрований:   2018-12-08 20:19
 Розмір:   4.87 GB 
 Оцінка фільму:   6.6/10 (Голосів: 25)
   
Інші релізи
   Аксель / A-X-L (2018) 720p Ukr/Eng 11FrYkT  30 / 1   2.8 GB   2018-12-09 09:21 
   Аксель / A-X-L (2018) AVC Ukr/Eng 11FrYkT  64 / 5   1.15 GB   2018-12-08 20:09 
   Аксель / A-X-L (2018) Ukr/Eng uafilm.tv  138 / 2   1.48 GB   2018-12-08 15:27 
bot 
робот


З нами з: 30.09.07
Востаннє: 26.05.05
Повідомлень: 20323

2018-12-08 20:19  
Тему перенесено з Анонси релізів до форуму Фільми в HD


staf777

mutomba 
VIP


З нами з: 20.10.13
Востаннє: 08.12.18
Повідомлень: 333

2018-12-08 20:44  
igor911 
Відео Гуртом
Відео Гуртом


З нами з: 18.01.08
Востаннє: 11.12.18
Повідомлень: 11560

2018-12-08 20:45  
mutomba, дякую, виправив.
Electroz 
Відео Гуртом - підтримка та поширення
Відео Гуртом - підтримка та поширення


З нами з: 18.09.14
Востаннє: 11.12.18
Повідомлень: 3174

2018-12-08 20:48  
staf777
Це вебріп з нетфлікса,

igor911 
Відео Гуртом
Відео Гуртом


З нами з: 18.01.08
Востаннє: 11.12.18
Повідомлень: 11560

2018-12-08 20:53  
Electroz написано:
вебріп з нетфлікса

виправив

Cerguk 
Частий відвідувач


З нами з: 30.09.09
Востаннє: 10.12.18
Повідомлень: 38

2018-12-09 16:50  
Треба розуміти це щось накшталт "Темні уми", бігунів в лабіринті і т.д., всіх навіть не згадаєш, але за останній рік-два подібних фільмів, де діти боряться проти системи/уряду/політики/військових, наклепали вже певно мінімум штук 7-8, і всі вони надзвичайно несерйозні )) Певно перше що було з даного жанру це були голодні ігри, а далі як поперло... Зараз навіть не згадаєш про що ті всі шедеври, в якомусь дітей ділили на касти за здібностями, в іншому якісь телепати були. Цікаво, це обов'язкова умова що фільм, де головні герої діти, повинен і сам фільм бути лише для дітей ?
wolfing1981 
Новенький


З нами з: 12.04.17
Востаннє: 10.12.18
Повідомлень: 5

2018-12-09 20:51  
Фільм для тінейджерів.
vovang6 
Поважний учасник


З нами з: 27.08.12
Востаннє: 10.12.18
Повідомлень: 159

2018-12-10 11:40  
Навiдь не можу примусити себе це подивитися...)
Panther2214 
Поважний учасник


З нами з: 29.09.17
Востаннє: 10.12.18
Повідомлень: 182

2018-12-10 13:46  
staf777

Код да Вінчі не плануєте робити????

Cerguk 
Частий відвідувач


З нами з: 30.09.09
Востаннє: 10.12.18
Повідомлень: 38

2018-12-10 17:41  
Переглянув, фільму 4 бали, він не просто для тінейджерів, він скоріше для молодших класів, бо вже навіть 5-класник скаже "Не вірю !" Wide grin Події в стрічці не дружать не те що з логікою, а й зі здоровим глуздом )) Марвел і то реалістичніші фільми знімає Happy
olegoik 
Новенький


З нами з: 30.01.12
Востаннє: 10.12.18
Повідомлень: 5

2018-12-10 18:04  
найжахливіший фільм, що я бачив у 2018 р))
Ваш часовий пояс: GMT + 2 Години

Нова тема   Відповісти