Аксель / A-X-L (2018) 1080p Ukr/Eng | Sub Eng

Нові коментарі

Нова тема   Відповісти
Автор Повідомлення
staf777 
Попереджень: 1
Попереджень: 1 


З нами з: 16.11.16
Востаннє: 17.02.19
Повідомлень: 2144

2018-12-08 16:34  
Аксель / A-X-L (2018) 1080p Ukr/Eng | Sub Eng

Аксель / A-X-L (2018) 1080p Ukr/Eng | Sub Eng


Жанр: бойовик, пригодницький, сімейний, фантастика
Країна: США



Кінокомпанія: Global Road Entertainment, Lakeshore Entertainment, Phantom Four Films
Режисер: Олівер Дейлі
Актори: Томас Джейн, Беккі Г., Тед МакГінлі, Лоу Тейлор Пуччі, Домінік Рейнс, Алекс Нюстадтер, Ерік Етебарі

Сюжет:
Підліток Майлз випадково знаходить високотехнологічного військового робопса на ім'я A-X-L. Наділений просунутим штучним інтелектом та добрим собачим серцем, пес моментально прив'язується до Майлза задля більшого гніву вчених, які створили металевого звіра. Бажаючи захистити кращого друга людини, Майлз за підтримки винахідливої дівчини Сари вирішує виступити проти військових.


Тривалість: 01:38:36
Якість: 1080p
Відео:
кодек:
розмір кадру: 1920x800
бітрейт: 15,1 Mб/с

Аудіо # 1:
мова: українська
переклад: багатоголосий закадровий
кодек: 2.0 [стерео]
бітрейт: 192 кб/с

Аудіо # 2:
мова: англійська
переклад: оригінал
кодек: 5.1
бітрейт: 1509 кб/с

Субтитри # 1-2: (повні, SDH)
мова: англійська
тип: програмні (м'які)
формат: *.srt
Info
General
Unique ID : 181696230107541151102906345198763017861 (0x88B16BC8ED13C2443D73AD0AB75E8685)
Complete name : P:\HD українською » Фільми в HD\Фантастика\A-X-L (2018) 1080p [UKR][ENG][Hurtom].
Format :
Format version : Version 4 / Version 2
File size : 11.6 GiB
Duration : 1 h 38 min
Overall bit rate : 16.8 Mb/s
Movie name : A-X-L (2018) 1080p [UKR][ENG][Hurtom]
Encoded date : UTC 2019-01-06 11:45:12
Writing application : v24.0.0 ('Beyond The Pale') 64-bit
Writing library : libebml v1.3.6 + v1.4.9
Cover : Yes
Attachments : cover.jpg

Video
ID : 1
Format : AVC
Format/Info : Advanced Video Codec
Format profile : [email protected]
Format settings : CABAC / 5 Ref Frames
Format settings, CABAC : Yes
Format settings, ReFrames : 5 frames
Codec ID : V_MPEG4/ISO/AVC
Duration : 1 h 38 min
Bit rate : 15.1 Mb/s
Width : 1 920 pixels
Height : 800 pixels
Display aspect ratio : 2.40:1
Frame rate mode : Constant
Frame rate : 23.976 (24000/1001) FPS
Color space : YUV
Chroma subsampling : 4:2:0
Bit depth : 8 bits
Scan type : Progressive
Bits/(Pixel*Frame) : 0.411
Stream size : 10.4 GiB (90%)
Title : A-X-L 2018 1080p BluRay -DON
Writing library : core 157 r2867+103 0d6443f t_mod_Custom_2 [[email protected] X86_64]
Encoding settings : cabac=1 / ref=5 / deblock=1:-3:-3 / analyse=0x3:0x133 / me=umh / subme=10 / psy=1 / fade_compensate=0.00 / psy_rd=1.00:0.00 / mixed_ref=1 / me_range=32 / chroma_me=1 / trellis=2 / 8x8dct=1 / cqm=0 / deadzone=21,11 / fast_pskip=0 / chroma_qp_offset=-2 / threads=12 / lookahead_threads=2 / sliced_threads=0 / nr=0 / decimate=0 / interlaced=0 / bluray_compat=0 / constrained_intra=0 / fgo=0 / bframes=8 / b_pyramid=2 / b_adapt=2 / b_bias=0 / direct=3 / weightb=1 / open_gop=0 / weightp=2 / keyint=250 / keyint_min=23 / scenecut=40 / intra_refresh=0 / rc_lookahead=60 / rc=crf / mbtree=0 / crf=16.0000 / qcomp=0.65 / qpmin=0:0:0 / qpmax=69:69:69 / qpstep=4 / vbv_maxrate=62500 / vbv_bufsize=78125 / crf_max=0.0 / nal_hrd=none / filler=0 / ip_ratio=1.30 / pb_ratio=1.20 / aq=3:0.80 / aq-sensitivity=10.00 / aq-factor=1.00:1.00:1.00 / aq2=0 / aq3=0 / zones=1103,2813,crf=13/12470,12970,crf=14/15001,18320,crf=15.5/18321,18366,crf=14/18367,23867,crf=15.5/35291,35363,crf=14/36844,36972,crf=13/37820,37891,crf=14/37983,38011,crf=14/39630,39777,crf=14/40202,40417,crf=14/40730,40873,crf=14/41654,41911,crf=14/43930,44045,crf=13/46114,46277,crf=14/53133,53200,crf=13/56100,56538,crf=12/57596,64438,crf=15.5/71181,71278,crf=13/87957,88110,crf=13/88955,89049,crf=12/101490,101720,crf=13/111220,111358,crf=13/111501,111623,crf=13/113766,113825,crf=14/116723,116804,crf=13/122800,122855,crf=13/128300,130895,crf=13
Language : English
Default : Yes
Forced : No
Color range : Limited
Matrix coefficients : BT.709

Audio #1
ID : 2
Format : AC-3
Format/Info : Audio Coding 3
Codec ID : A_AC3
Duration : 1 h 38 min
Bit rate mode : Constant
Bit rate : 192 kb/s
Channel(s) : 2 channels
Channel positions : Front: L R
Sampling rate : 48.0 kHz
Frame rate : 31.250 FPS (1536 SPF)
Bit depth : 16 bits
Compression mode : Lossy
Stream size : 135 MiB (1%)
Language : Ukrainian
Service kind : Complete Main
Default : Yes
Forced : Yes

Audio #2
ID : 3
Format :
Format/Info : Digital Theater Systems
Codec ID : A_DTS
Duration : 1 h 38 min
Bit rate mode : Constant
Bit rate : 1 509 kb/s
Channel(s) : 6 channels
Channel positions : Front: L C R, Side: L R, LFE
Sampling rate : 48.0 kHz
Frame rate : 93.750 FPS (512 SPF)
Bit depth : 24 bits
Compression mode : Lossy
Stream size : 1.04 GiB (9%)
Language : English
Default : No
Forced : No

Text #1
ID : 4
Format : UTF-8
Codec ID : S_TEXT/UTF8
Codec ID/Info : UTF-8 Plain Text
Duration : 1 h 28 min
Bit rate : 48 b/s
Count of elements : 975
Stream size : 31.5 KiB (0%)
Language : English
Default : No
Forced : No

Text #2
ID : 5
Format : UTF-8
Codec ID : S_TEXT/UTF8
Codec ID/Info : UTF-8 Plain Text
Duration : 1 h 28 min
Bit rate : 56 b/s
Count of elements : 1210
Stream size : 36.4 KiB (0%)
Title : SDH
Language : English
Default : No
Forced : No

Menu
00:00:00.000 : en:Chapter 01
00:05:03.887 : en:Chapter 02
00:10:06.064 : en:Chapter 03
00:16:35.494 : en:Chapter 04
00:19:37.927 : en:Chapter 05
00:23:11.849 : en:Chapter 06
00:30:32.080 : en:Chapter 07
00:36:25.266 : en:Chapter 08
00:44:47.643 : en:Chapter 09
00:49:35.264 : en:Chapter 10
00:56:14.788 : en:Chapter 11
01:01:15.005 : en:Chapter 12
01:09:45.473 : en:Chapter 13
01:14:41.727 : en:Chapter 14
01:18:30.414 : en:Chapter 15
01:25:27.080 : en:Chapter 16
Скріншоти


Підтримати купівлю інших фільмів можна тут.



Подяка пану AngryBirdsUA за доріжку.
Джерело: &
Особиста оцінка: 8 - мені сподобалося



 Трекер:    Зареєстрований   

Завантажити / скачати фільм українською



відео для новачків



 Зареєстрований:   2019-01-06 14:09
 Розмір:   11.6 GB 
 Оцінка фільму:   7.2/10 (Голосів: 38)
   
Інші релізи
   Аксель / A-X-L (2018) Remux 1080p Ukr/Eng | sub Eng staf777  4 / 0   25.43 GB   2019-01-06 12:57 
   Аксель / A-X-L (2018) AVC Ukr/Eng | Sub Eng 11FrYkT  32 / 1   1.7 GB   2019-01-06 09:39 
   Аксель / A-X-L (2018) Ukr/Eng uafilm.tv  21 / 0   1.46 GB   2019-01-05 22:08 
   Аксель / A-X-L (2018) 720p Ukr/Eng | Sub Eng 11FrYkT  21 / 1   3.87 GB   2019-01-05 21:13 
Cerguk 
Свій


З нами з: 30.09.09
Востаннє: 17.02.19
Повідомлень: 52

2018-12-09 16:50  
Треба розуміти це щось накшталт "Темні уми", бігунів в лабіринті і т.д., всіх навіть не згадаєш, але за останній рік-два подібних фільмів, де діти боряться проти системи/уряду/політики/військових, наклепали вже певно мінімум штук 7-8, і всі вони надзвичайно несерйозні )) Певно перше що було з даного жанру це були голодні ігри, а далі як поперло... Зараз навіть не згадаєш про що ті всі шедеври, в якомусь дітей ділили на касти за здібностями, в іншому якісь телепати були. Цікаво, це обов'язкова умова що фільм, де головні герої діти, повинен і сам фільм бути лише для дітей ?
wolfing1981 
Новенький


З нами з: 12.04.17
Востаннє: 16.02.19
Повідомлень: 8

2018-12-09 20:51  
Фільм для тінейджерів.
vovang6 
Поважний учасник


З нами з: 27.08.12
Востаннє: 17.02.19
Повідомлень: 175

2018-12-10 11:40  
Навiдь не можу примусити себе це подивитися...)
Cerguk 
Свій


З нами з: 30.09.09
Востаннє: 17.02.19
Повідомлень: 52

2018-12-10 17:41  
Переглянув, фільму 4 бали, він не просто для тінейджерів, він скоріше для молодших класів, бо вже навіть 5-класник скаже "Не вірю !" Wide grin Події в стрічці не дружать не те що з логікою, а й зі здоровим глуздом )) Марвел і то реалістичніші фільми знімає Happy
olegoik 
Новенький


З нами з: 30.01.12
Востаннє: 16.02.19
Повідомлень: 5

2018-12-10 18:04  
найжахливіший фільм, що я бачив у 2018 р))
Jogino 
Новенький


З нами з: 21.04.13
Востаннє: 14.02.19
Повідомлень: 23

2018-12-13 19:49  
Cerguk написано:
Марвел і то реалістичніші фільми знімає

100%, вдало підібраний опис фільму.

staf777 
Попереджень: 1
Попереджень: 1 


З нами з: 16.11.16
Востаннє: 17.02.19
Повідомлень: 2144

2019-01-06 14:09  
Оновив до 1080p
Ваш часовий пояс: GMT + 2 Години

Нова тема   Відповісти