Брати / Brothers (2009) 1080p H.265 Ukr/Eng | Sub Eng

Нові коментарі

Нова тема   Відповісти
Автор Повідомлення
-Star-Lord- 
VIP


З нами з: 09.08.18
Востаннє: 11.12.18
Повідомлень: 331

2018-12-08 16:05  
Брати / Brothers (2009) 1080p H.265 Ukr/Eng | Sub Eng

Брати / Brothers (2009) 1080p H.265 Ukr/Eng | Sub Eng


Жанр: драма, трилер, воєнний
Країна: США
Кінокомпанія: Lionsgate, Relativity Media, Sighvatsson Films, Michael De Luca Productions, Palomar Pictures (II).
Режисер: Джим Шерідан / Jim Sheridan
Актори: Тобі Магуайр / Tobey Maguire, Джейк Джилленхол / Jake Gyllenhaal, Наталі Портман / Natalie Portman, Сем Шепард / Sam Shepard, Маре Біннінхгем / Mare Winningham, Бейлі Медісон / Bailee Madison, Тейлор Джаре / Taylor Geare, Патрік Джон Флуегер / Patrick John Flueger, Кліфтон Коллінс мол. / Clifton Collins Jr., Карі Мулліган / Carey Mulligan, Омід Абтагі / Omid Abtahi, Навід Негабан / Navid Negahban, Етан Саплі / Ethan Suplee, Аррон Шівер / Arron Shiver, Рей Прювітт / Ray Prewitt

Сюжет:
Два брати. Вони такі несхожі один на одного. Старший, Сем — хороший офіцер, люблячий чоловік і батько. А молодший, Томмі, кидається по життю, немов ходить по лезу бритви. Поїхавши добровольцем на війну до Афганістану, Сем просить Томмі потурбуватися про дітей і дружину Грейс. Проходить час, від Сема немає звісток. Його вважають зниклим безвісти. Томмі, як може, втішає Грейс. Непомітно між ними спалахує почуття... Але одного дня Сем повертається...

Тривалість: 01:44:42
Якість:
Відео:
кодек: H.265 (HEVC)
розмір кадру: 1916 x 800
бітрейт: 5 131 кб/с
частота кадрів: 23.976 fps
біт піксель: 0.140 BPP (Bits Per Pixel)
бітова глибина: 10 біт
Увага! Перед завантаженням переконайтесь, що ваш пристрій відтворення (та/або ПЗ) підтримує H.265 (HEVC)

Аудіо # 1:
мова: українська
переклад: багатоголосий закадровий
кодек: AC-3 2.0
бітрейт: 192 кб/с

Аудіо # 2:
мова: англійська
переклад: оригінал
кодек: AC-3 5.1
бітрейт: 448 кб/с

Субтитри # 1:
мова: англійська (Full),
тип: програмні (м'які)
формат: *.srt


Info
Код:
General
Unique ID                                : 52494301965622726287362686999168295345 (0x277E08E914AB6954E34730626EF021B1)
Complete name                            : D:\Video\Brothers (2009) 1080p H.265 [UKR_ENG].
Format                                   :
Format version                           : Version 4 / Version 2
File size                                : 4.22 GiB
Duration                                 : 1 h 44 min
Overall bit rate                         : 5 773 kb/s
Movie name                               : Brothers (2009)
Encoded date                             : UTC 2018-12-08 13:47:13
Writing application                      : v20.0.0 ('I Am The Sun') 32-bit
Writing library                          : libebml v1.3.5 + v1.4.8
Cover                                    : Yes
Attachments                              : Cover.jpg

Video
ID                                       : 1
Format                                   : HEVC
Format/Info                              : High Efficiency Video Coding
Format profile                           : Main [email protected]@Main
Codec ID                                 : V_MPEGH/ISO/HEVC
Duration                                 : 1 h 44 min
Bit rate                                 : 5 131 kb/s
Width                                    : 1 916 pixels
Height                                   : 800 pixels
Display aspect ratio                     : 2.40:1
Frame rate mode                          : Constant
Frame rate                               : 23.976 (24000/1001) FPS
Color space                              : YUV
Chroma subsampling                       : 4:2:0
Bit depth                                : 10 bits
Bits/(Pixel*Frame)                       : 0.140
Stream size                              : 3.75 GiB (89%)
Title                                    : Brothers (2009)
Writing library                          : x265 2.8+1-478bfe2b7673:[Windows][GCC 7.3.0][64 bit] 10bit
Encoding settings                        : cpuid=1111039 / frame-threads=3 / numa-pools=8 / wpp / no-pmode / no-pme / no-psnr / no-ssim / log-level=2 / input-csp=1 / input-res=1916x800 / interlace=0 / total-frames=150624 / level-idc=0 / high-tier=1 / uhd-bd=0 / ref=4 / no-allow-non-conformance / no-repeat-headers / annexb / no-aud / no-hrd / info / hash=0 / no-temporal-layers / open-gop / min-keyint=23 / keyint=250 / gop-lookahead=0 / bframes=4 / b-adapt=2 / b-pyramid / bframe-bias=0 / rc-lookahead=25 / lookahead-slices=4 / scenecut=40 / radl=0 / no-intra-refresh / ctu=64 / min-cu-size=8 / rect / no-amp / max-tu-size=32 / tu-inter-depth=1 / tu-intra-depth=1 / limit-tu=0 / rdoq-level=2 / dynamic-rd=0.00 / no-ssim-rd / signhide / no-tskip / nr-intra=0 / nr-inter=0 / no-constrained-intra / strong-intra-smoothing / max-merge=3 / limit-refs=3 / limit-modes / me=3 / subme=3 / merange=57 / temporal-mvp / weightp / no-weightb / no-analyze-src-pics / deblock=0:0 / sao / no-sao-non-deblock / rd=4 / no-early-skip / rskip / no-fast-intra / no-tskip-fast / no-cu-lossless / no-b-intra / no-splitrd-skip / rdpenalty=0 / psy-rd=2.00 / psy-rdoq=1.00 / no-rd-refine / no-lossless / cbqpoffs=0 / crqpoffs=0 / rc=crf / crf=19.0 / qcomp=0.60 / qpstep=4 / stats-write=0 / stats-read=0 / ipratio=1.40 / pbratio=1.30 / aq-mode=3 / aq-strength=1.00 / cutree / zone-count=0 / no-strict-cbr / qg-size=32 / no-rc-grain / qpmax=69 / qpmin=0 / no-const-vbv / sar=0 / overscan=0 / videoformat=5 / range=0 / colorprim=2 / transfer=2 / colormatrix=2 / chromaloc=0 / display-window=0 / max-cll=0,0 / min-luma=0 / max-luma=1023 / log2-max-poc-lsb=8 / vui-timing-info / vui-hrd-info / slices=1 / no-opt-qp-pps / no-opt-ref-list-length-pps / no-multi-pass-opt-rps / scenecut-bias=0.05 / no-opt-cu-delta-qp / aq-motion / no-hdr / no-hdr-opt / no-dhdr10-opt / no-idr-recovery-sei / analysis-reuse-level=5 / scale-factor=0 / refine-intra=0 / refine-inter=0 / refine-mv=0 / no-limit-sao / ctu-info=0 / no-lowpass-dct / refine-mv-type=0 / copy-pic=1 / max-ausize-factor=1.0 / no-dynamic-refine / no-single-sei
Default                                  : Yes
Forced                                   : No

Audio #1
ID                                       : 2
Format                                   : AC-3
Format/Info                              : Audio Coding 3
Codec ID                                 : A_AC3
Duration                                 : 1 h 44 min
Bit rate mode                            : Constant
Bit rate                                 : 192 kb/s
Channel(s)                               : 2 channels
Channel positions                        : Front: L R
Sampling rate                            : 48.0 kHz
Frame rate                               : 31.250 FPS (1536 SPF)
Bit depth                                : 16 bits
Compression mode                         : Lossy
Stream size                              : 144 MiB (3%)
Title                                    : БЗ - Воля кіно
Language                                 : Ukrainian
Service kind                             : Complete Main
Default                                  : Yes
Forced                                   : No

Audio #2
ID                                       : 3
Format                                   : AC-3
Format/Info                              : Audio Coding 3
Codec ID                                 : A_AC3
Duration                                 : 1 h 44 min
Bit rate mode                            : Constant
Bit rate                                 : 448 kb/s
Channel(s)                               : 6 channels
Channel positions                        : Front: L C R, Side: L R, LFE
Sampling rate                            : 48.0 kHz
Frame rate                               : 31.250 FPS (1536 SPF)
Bit depth                                : 16 bits
Compression mode                         : Lossy
Stream size                              : 335 MiB (8%)
Title                                    : Original
Language                                 : English
Service kind                             : Complete Main
Default                                  : No
Forced                                   : No

Text
ID                                       : 4
Format                                   : UTF-8
Codec ID                                 : S_TEXT/UTF8
Codec ID/Info                            : UTF-8 Plain Text
Duration                                 : 1 h 39 min
Bit rate                                 : 37 b/s
Count of elements                        : 854
Stream size                              : 27.6 KiB (0%)
Title                                    : Full
Language                                 : English
Default                                  : Yes
Forced                                   : No

Menu
00:00:00.000                             : en:1. Leaving Again
00:05:55.814                             : en:2. Family Dinner
00:14:26.908                             : en:3. Knock at the Door
00:19:23.120                             : en:4. Saying Goodbye
00:28:03.223                             : en:5. Pancakes
00:32:41.334                             : en:6. Be Present
00:39:23.486                             : en:7. Painting Party
00:46:45.636                             : en:8. Winter Fun
00:54:45.532                             : en:9. You or Him
00:58:07.150                             : en:10. Under Siege
01:06:31.821                             : en:11. You Can Tell Me
01:10:33.855                             : en:12. A Good Man
01:18:33.876                             : en:13. Lucky to Be Alive
01:27:18.525                             : en:14. Going to Be Better
01:32:10.775                             : en:15. Drowning
01:37:20.793                             : en:16. The End of War
Світлини




Джерело:
Особиста оцінка: 0 - не дивився


>>> Усі мої релізи <<<



 Трекер:    Зареєстрований   

Завантажити / скачати фільм українською



відео для новачків



 Зареєстрований:   2018-12-08 16:05
 Розмір:   4.22 GB 
 Оцінка фільму:   10/10 (Голосів: 2)
   
Інші релізи
   Брати / Brothers (2009) patriot2305  0 / 0   1.26 GB   2012-09-30 08:58 
   Брати / Brothers (2009) 720p Ukr/Eng | Sub Eng DеLight  4 / 0   4.37 GB   2012-09-17 12:55 
   Брати / Brothers (2009) Ukr/Eng | Sub Eng karvai0  4 / 0   2 GB   2012-06-23 20:35 
OL3X 
VIP


З нами з: 25.11.15
Востаннє: 10.12.18
Повідомлень: 433

2018-12-08 16:49  
Хороший фільм, однозначно рекомендую до перегляду.
Ваш часовий пояс: GMT + 2 Години

Нова тема   Відповісти