Френк / Frank (2014) 1080p H.265 Ukr/Eng | Sub Eng

Нові коментарі

Нова тема   Відповісти
Автор Повідомлення
-Star-Lord- 
VIP


З нами з: 09.08.18
Востаннє: 11.12.18
Повідомлень: 331

2018-12-08 16:01  
Френк / Frank (2014) 1080p H.265 Ukr/Eng | Sub Eng

Френк / Frank (2014) 1080p H.265 Ukr/Eng | Sub Eng


Жанр: драма, комедія, детектив
Країна: Велика Британія, Ірландія
Кінокомпанія: Runaway Fridge Productions, Element Pictures, Film4
Режисер: Леонард Абрахамсон
Актори: Донал Глісон, Меггі Джилленхол, Скут МакНейрі, Майкл Фассбендер, Мойра Брукер, Пол Баттерворф, Філ Кінгстон, Біллі Трейнор, Шейн О'Брайен, Франсуа Сівілом

Сюжет:
The Freshies - так називалася група, що існувала в Британії в 70-х роках. Френк Сайдботтом - видатний комік і співак був її фронтменом. Варто сказати, що він був тим ще унікумом: Френк любив епатувати публіку. Начепити на себе голову ляльки-велетня під час концерту і не тільки - це в його стилі. Автори кінострічки вирішили не знімати біографію музиканта, який любив заявити про себе на повний голос. Вони запозичили у Сайдботтома незвичайний імідж і перетворили його в американця. Вони вигадали божевільну музичну історію. Початок історії: в групу приходить новачок на ім'я Джон. Він підбиває музикантів на те, щоб зрадити старому-доброму інді-року і податися в комерційну попсу. Але чи може така пропозиція сподобатися Френку ..?

Тривалість: 01:35:05
Якість:
Відео:
кодек: H.265 (HEVC)
розмір кадру: 1920 x 816
бітрейт: 3 823 кб/с
частота кадрів: 23.976 fps
біт піксель: 0.102 BPP (Bits Per Pixel)
бітова глибина: 10 біт
Увага! Перед завантаженням переконайтесь, що ваш пристрій відтворення (та/або ПЗ) підтримує H.265 (HEVC)

Аудіо # 1:
мова: українська
переклад: багатоголосий закадровий | ТРК "Чернівці"
кодек: AC-3 2.0
бітрейт: 192 кб/с

Аудіо # 2:
мова: англійська
переклад: оригінал
кодек: AC-3 5.1
бітрейт: 448 кб/с

Субтитри # 1:
мова: англійська (Full),
тип: програмні (м'які)
формат: *.srt


Info
Код:
General
Unique ID                                : 1239395745853595686239209172536851786 (0xEEB2ED999ACB3C5B4B0AA7F4EAFD4A)
Complete name                            : G:\Video\Films\Frank (2014) 1080p H.265 [UKR_ENG].
Format                                   :
Format version                           : Version 4 / Version 2
File size                                : 2.97 GiB
Duration                                 : 1 h 35 min
Overall bit rate                         : 4 465 kb/s
Movie name                               : Frank (2014)
Encoded date                             : UTC 2018-12-08 13:54:06
Writing application                      : v20.0.0 ('I Am The Sun') 32-bit
Writing library                          : libebml v1.3.5 + v1.4.8
Cover                                    : Yes
Attachments                              : Cover.jpg

Video
ID                                       : 1
Format                                   : HEVC
Format/Info                              : High Efficiency Video Coding
Format profile                           : Main [email protected]@Main
Codec ID                                 : V_MPEGH/ISO/HEVC
Duration                                 : 1 h 35 min
Bit rate                                 : 3 823 kb/s
Width                                    : 1 920 pixels
Height                                   : 816 pixels
Display aspect ratio                     : 2.35:1
Frame rate mode                          : Constant
Frame rate                               : 23.976 (24000/1001) FPS
Color space                              : YUV
Chroma subsampling                       : 4:2:0
Bit depth                                : 10 bits
Bits/(Pixel*Frame)                       : 0.102
Stream size                              : 2.54 GiB (86%)
Title                                    : Frank (2014)
Writing library                          : x265 2.9+1-169e76b6bbcc:[Windows][GCC 8.2.0][64 bit] 10bit
Encoding settings                        : cpuid=1111039 / frame-threads=3 / numa-pools=8 / wpp / no-pmode / no-pme / no-psnr / no-ssim / log-level=2 / input-csp=1 / input-res=1920x816 / interlace=0 / total-frames=136801 / level-idc=0 / high-tier=1 / uhd-bd=0 / ref=4 / no-allow-non-conformance / no-repeat-headers / annexb / no-aud / no-hrd / info / hash=0 / no-temporal-layers / open-gop / min-keyint=23 / keyint=250 / gop-lookahead=0 / bframes=8 / b-adapt=2 / b-pyramid / bframe-bias=0 / rc-lookahead=25 / lookahead-slices=4 / scenecut=40 / radl=0 / no-intra-refresh / ctu=64 / min-cu-size=8 / rect / no-amp / max-tu-size=32 / tu-inter-depth=1 / tu-intra-depth=1 / limit-tu=0 / rdoq-level=2 / dynamic-rd=0.00 / no-ssim-rd / signhide / no-tskip / nr-intra=0 / nr-inter=0 / no-constrained-intra / strong-intra-smoothing / max-merge=3 / limit-refs=3 / limit-modes / me=3 / subme=3 / merange=57 / temporal-mvp / weightp / no-weightb / no-analyze-src-pics / deblock=0:0 / sao / no-sao-non-deblock / rd=4 / no-early-skip / rskip / no-fast-intra / no-tskip-fast / no-cu-lossless / no-b-intra / no-splitrd-skip / rdpenalty=0 / psy-rd=2.00 / psy-rdoq=1.00 / no-rd-refine / no-lossless / cbqpoffs=0 / crqpoffs=0 / rc=crf / crf=18.0 / qcomp=0.60 / qpstep=4 / stats-write=0 / stats-read=0 / ipratio=1.40 / pbratio=1.30 / aq-mode=3 / aq-strength=1.00 / cutree / zone-count=0 / no-strict-cbr / qg-size=32 / no-rc-grain / qpmax=69 / qpmin=0 / no-const-vbv / sar=0 / overscan=0 / videoformat=5 / range=0 / colorprim=2 / transfer=2 / colormatrix=2 / chromaloc=0 / display-window=0 / max-cll=0,0 / min-luma=0 / max-luma=1023 / log2-max-poc-lsb=8 / vui-timing-info / vui-hrd-info / slices=1 / no-opt-qp-pps / no-opt-ref-list-length-pps / no-multi-pass-opt-rps / scenecut-bias=0.05 / no-opt-cu-delta-qp / aq-motion / no-hdr / no-hdr-opt / no-dhdr10-opt / no-idr-recovery-sei / analysis-reuse-level=5 / scale-factor=0 / refine-intra=0 / refine-inter=0 / refine-mv=0 / no-limit-sao / ctu-info=0 / no-lowpass-dct / refine-mv-type=0 / copy-pic=1 / max-ausize-factor=1.0 / no-dynamic-refine / no-single-sei
Default                                  : Yes
Forced                                   : No

Audio #1
ID                                       : 2
Format                                   : AC-3
Format/Info                              : Audio Coding 3
Codec ID                                 : A_AC3
Duration                                 : 1 h 35 min
Bit rate mode                            : Constant
Bit rate                                 : 192 kb/s
Channel(s)                               : 2 channels
Channel positions                        : Front: L R
Sampling rate                            : 48.0 kHz
Frame rate                               : 31.250 FPS (1536 SPF)
Bit depth                                : 16 bits
Compression mode                         : Lossy
Stream size                              : 131 MiB (4%)
Title                                    : БЗ - ТРК "Чернівці"
Language                                 : Ukrainian
Service kind                             : Complete Main
Default                                  : Yes
Forced                                   : Yes

Audio #2
ID                                       : 3
Format                                   : AC-3
Format/Info                              : Audio Coding 3
Codec ID                                 : A_AC3
Duration                                 : 1 h 35 min
Bit rate mode                            : Constant
Bit rate                                 : 448 kb/s
Channel(s)                               : 6 channels
Channel positions                        : Front: L C R, Side: L R, LFE
Sampling rate                            : 48.0 kHz
Frame rate                               : 31.250 FPS (1536 SPF)
Bit depth                                : 16 bits
Compression mode                         : Lossy
Stream size                              : 305 MiB (10%)
Title                                    : Original
Language                                 : English
Service kind                             : Complete Main
Default                                  : No
Forced                                   : No

Text
ID                                       : 4
Format                                   : UTF-8
Codec ID                                 : S_TEXT/UTF8
Codec ID/Info                            : UTF-8 Plain Text
Duration                                 : 1 h 34 min
Bit rate                                 : 52 b/s
Count of elements                        : 1109
Stream size                              : 36.7 KiB (0%)
Title                                    : Full
Language                                 : English
Default                                  : No
Forced                                   : No

Menu
00:00:00.000                             : en:Chapter 1
00:06:57.333                             : en:Chapter 2
00:14:56.270                             : en:Chapter 3
00:21:14.898                             : en:Chapter 4
00:29:07.495                             : en:Chapter 5
00:37:24.575                             : en:Chapter 6
00:45:31.603                             : en:Chapter 7
00:51:53.777                             : en:Chapter 8
01:01:31.771                             : en:Chapter 9
01:07:58.074                             : en:Chapter 10
01:14:36.138                             : en:Chapter 11
01:23:28.837                             : en:Chapter 12
Світлини




Джерело:
Особиста оцінка: 0 - не дивився


>>> Усі мої релізи <<<



 Трекер:    Зареєстрований   

Завантажити / скачати фільм українською



відео для новачків



 Зареєстрований:   2018-12-08 16:01
 Розмір:   2.97 GB 
 Оцінка фільму:   8.7/10 (Голосів: 3)
   
Інші релізи
   Френк / Frank (2014) AVC Ukr/Eng | Sub Eng drop_plz  9 / 0   1.75 GB   2018-09-18 21:27 
Ваш часовий пояс: GMT + 2 Години

Нова тема   Відповісти