Петля часу / Looper (2012) AVC 2xUkr/Eng | Sub Eng

Нові коментарі

Нова тема   Відповісти
Автор Повідомлення
staf777 
Попереджень: 1
Попереджень: 1 


З нами з: 16.11.16
Востаннє: 11.12.18
Повідомлень: 1892

2018-12-08 15:00  
Петля часу / Looper (2012) AVC 2xUkr/Eng | Sub Eng

Петля часу / Looper (2012) AVC 2xUkr/Eng | Sub Eng
Оригінальний постер

Петля часу / Looper (2012) AVC 2xUkr/Eng | Sub Eng
Жанр: екшн, кримінальний, фантастика, трилер
Країна: США , Китай



Кінокомпанія: Endgame Entertainment, DMG Entertainment, FilmNation Entertainment, Ram Bergman Productions
Режисер: Раян Джонсон
Актори: Джозеф Ґордон-Левіт, Брюс Вілліс, Емілі Блант, Пол Дано, Ной Сеґан, Пайпер Перабо, Джефф Деніелс та інші

Сюжет:
В недалекому майбутньому, де стали можливі подорожі в часі, деяка корпорація прибирає небажаних людей, відправляючи їх у минуле в пластикових пакетах. Завдання приймаючої сторони — всадити жертві кулю в голову, стерши тим самим нещасного з історії. Все йде гладко до тих пір, поки головний герой не розпаковує черговий пакет, знаходячи в ньому... самого себе з майбутнього.


Тривалість: 01:58:53
Якість: AVC
Відео:
кодек:
розмір кадру: 1072x456
бітрейт: 2619 кб/с

Аудіо # 1:
мова: українська
переклад: багатоголосий закадровий
кодек: 2.0
бітрейт: 192 кб/с

Аудіо # 2:
мова: українська
переклад: багатоголосий закадровий
кодек: 5.1
бітрейт: 448 кб/с

Аудіо # 3:
мова: англійська
переклад: оригінал
кодек: 5.1
бітрейт: 448 кб/с

Субтитри:
мова: англійська
тип: програмні (м'які)
формат: *.srt
Info
General
Unique ID : 296375503253986652492175186425245734134 (0xDEF7D87C843086AE99EFDD31FBEE14F6)
Complete name : N:\Фільми AVC\Фантастика\Looper (2012) [2xUkr,Eng] AVC [Hurtom] .
Format :
Format version : Version 4 / Version 2
File size : 3.08 GiB
Duration : 1 h 58 min
Overall bit rate : 3 707 kb/s
Movie name : Looper (2012) [2xUkr,Eng] AVC [Hurtom]
Encoded date : UTC 2018-12-08 12:18:33
Writing application : v24.0.0 ('Beyond The Pale') 64-bit
Writing library : libebml v1.3.6 + v1.4.9
Cover : Yes
Attachments : cover.png

Video
ID : 1
Format : AVC
Format/Info : Advanced Video Codec
Format profile : [email protected]
Format settings : CABAC / 10 Ref Frames
Format settings, CABAC : Yes
Format settings, ReFrames : 10 frames
Codec ID : V_MPEG4/ISO/AVC
Duration : 1 h 58 min
Bit rate : 2 619 kb/s
Width : 1 072 pixels
Height : 456 pixels
Display aspect ratio : 2.35:1
Frame rate mode : Constant
Frame rate : 23.976 (24000/1001) FPS
Color space : YUV
Chroma subsampling : 4:2:0
Bit depth : 8 bits
Scan type : Progressive
Bits/(Pixel*Frame) : 0.223
Stream size : 2.17 GiB (71%)
Title : potroks
Writing library : core 128 r2216M 198a7ea
Encoding settings : cabac=1 / ref=11 / deblock=1:-2:-1 / analyse=0x3:0x133 / me=umh / subme=11 / psy=1 / psy_rd=1.03:0.00 / mixed_ref=1 / me_range=32 / chroma_me=1 / trellis=2 / 8x8dct=1 / cqm=0 / deadzone=21,11 / fast_pskip=0 / chroma_qp_offset=-2 / threads=4 / lookahead_threads=1 / sliced_threads=0 / nr=0 / decimate=1 / interlaced=0 / bluray_compat=0 / constrained_intra=0 / bframes=13 / b_pyramid=1 / b_adapt=2 / b_bias=0 / direct=3 / weightb=1 / open_gop=0 / weightp=2 / keyint=240 / keyint_min=23 / scenecut=40 / intra_refresh=0 / rc_lookahead=200 / rc=2pass / mbtree=1 / bitrate=2619 / ratetol=1.0 / qcomp=0.70 / qpmin=0 / qpmax=65 / qpstep=4 / cplxblur=20.0 / qblur=0.5 / vbv_maxrate=31250 / vbv_bufsize=62500 / nal_hrd=none / ip_ratio=1.35 / aq=1:0.70
Language : English
Default : Yes
Forced : No

Audio #1
ID : 2
Format : AC-3
Format/Info : Audio Coding 3
Codec ID : A_AC3
Duration : 1 h 58 min
Bit rate mode : Constant
Bit rate : 192 kb/s
Channel(s) : 2 channels
Channel positions : Front: L R
Sampling rate : 48.0 kHz
Frame rate : 31.250 FPS (1536 SPF)
Bit depth : 16 bits
Compression mode : Lossy
Stream size : 163 MiB (5%)
Title : [Ukr-Mvo-Cine]
Language : Ukrainian
Service kind : Complete Main
Default : Yes
Forced : Yes

Audio #2
ID : 3
Format : AC-3
Format/Info : Audio Coding 3
Codec ID : A_AC3
Duration : 1 h 58 min
Bit rate mode : Constant
Bit rate : 448 kb/s
Channel(s) : 6 channels
Channel positions : Front: L C R, Side: L R, LFE
Sampling rate : 48.0 kHz
Frame rate : 31.250 FPS (1536 SPF)
Bit depth : 16 bits
Compression mode : Lossy
Stream size : 381 MiB (12%)
Language : Ukrainian
Service kind : Complete Main
Default : No
Forced : No

Audio #3
ID : 4
Format : AC-3
Format/Info : Audio Coding 3
Codec ID : A_AC3
Duration : 1 h 58 min
Bit rate mode : Constant
Bit rate : 448 kb/s
Channel(s) : 6 channels
Channel positions : Front: L C R, Side: L R, LFE
Sampling rate : 48.0 kHz
Frame rate : 31.250 FPS (1536 SPF)
Bit depth : 16 bits
Compression mode : Lossy
Stream size : 381 MiB (12%)
Title : Original | DD 5.1 @ 448 kbps
Language : English
Service kind : Complete Main
Default : No
Forced : No

Text #1
ID : 5
Format : UTF-8
Codec ID : S_TEXT/UTF8
Codec ID/Info : UTF-8 Plain Text
Duration : 1 h 47 min
Bit rate : 39 b/s
Count of elements : 904
Stream size : 30.6 KiB (0%)
Language : English
Default : No
Forced : No

Text #2
ID : 6
Format : UTF-8
Codec ID : S_TEXT/UTF8
Codec ID/Info : UTF-8 Plain Text
Duration : 1 h 53 min
Bit rate : 45 b/s
Count of elements : 1205
Stream size : 37.4 KiB (0%)
Title : SDH
Language : English
Default : No
Forced : No

Menu
00:00:00.000 : en:00:00:00.000
00:07:27.447 : en:00:07:27.447
00:13:31.686 : en:00:13:31.686
00:21:22.490 : en:00:21:22.490
00:26:48.106 : en:00:26:48.106
00:31:51.201 : en:00:31:51.201
00:41:28.403 : en:00:41:28.403
00:49:33.429 : en:00:49:33.429
00:54:10.414 : en:00:54:10.414
01:00:35.006 : en:01:00:35.006
01:08:09.919 : en:01:08:09.919
01:15:23.352 : en:01:15:23.352
01:23:57.741 : en:01:23:57.741
01:34:25.869 : en:01:34:25.869
01:41:04.433 : en:01:41:04.433
01:46:29.383 : en:01:46:29.383








Запис з Cine+ Sando7 Синхронізація Arsenfpu
Джерело: &
Особиста оцінка: 0 - не дивився
ЗАЛИШАЙТЕСЬ ЯКОМОГА ДОВШЕ НА РОЗДАЧІ!

СКАЧАВ САМ - ДАЙ СКАЧАТИ ІНШИМ



 Трекер:    Зареєстрований   

Завантажити / скачати фільм українською



відео для новачків



 Зареєстрований:   2018-12-08 16:54
 Розмір:   3.08 GB 
 Оцінка фільму:   8.3/10 (Голосів: 6)
   
Інші релізи
   Петля часу / Looper (2012) Remux 1080p 2xUkr/Eng | Sub Eng staf777  3 / 0   32.45 GB   2018-12-08 19:09 
   Петля часу / Looper (2012) 2xUkr/Eng Arsenfpu  8 / 0   2.24 GB   2017-10-09 21:56 
   Петля часу / Looper (2012) 1080p Ukr/Eng | Sub Eng ratbol  5 / 0   12.65 GB   2013-01-23 12:44 
staf777 
Попереджень: 1
Попереджень: 1 


З нами з: 16.11.16
Востаннє: 11.12.18
Повідомлень: 1892

2018-12-08 15:06  
Також буде оновлен цей ремукс https://toloka.to/t79701 - к -HD MA 5.1 будуть добавлені ці дві доріжки
bot 
робот


З нами з: 30.09.07
Востаннє: 26.05.05
Повідомлень: 20323

2018-12-08 16:54  
Тему перенесено з Анонси релізів до форуму Фільми


staf777

Ваш часовий пояс: GMT + 2 Години

Нова тема   Відповісти