Трансформери. Кібервсесвіт / Transformers. Cyberverse (Сезон 1) (2018) 1080p Ukr/Eng

Нові коментарі

Нова тема   Відповісти
Останній раз роздавалося teren43 (2019-11-14)
Автор Повідомлення
sergiyko.5 
VIP


З нами з: 25.02.16
Востаннє: 15.11.19
Повідомлень: 2740

2018-12-08 11:24  
Трансформери. Кібервсесвіт / Transformers. Cyberverse (Сезон 1) (2018) 1080p Ukr/Eng

Трансформери. Кібервсесвіт / Transformers. Cyberverse (Сезон 1) (2018) 1080p Ukr/Eng

Жанр: дитячий, пригодницький
Країна: США
Режисер: Роберт Гюлен

Сюжет:
Бамблбі отримав важливе завдання: від нього залежать життя, але усе забув! Добре, що поруч його найкраща подруга Віндблейд, яка допоможе відновити пошкоджені файли пам'яті. З кожним новим спогадом Бамблбі відкриваються його колишні пригоди на Кібертроні, ще до прильоту на Землю. Кожна відновлений осередок пам'яті дає Бамблбі і Віндблейд нові підказки, і рано чи пізно це допоможе їм виконати спільну місію і врятувати своїх друзів. Але десептикони не дрімають, і час добігає кінця!




Тривалість: 1 серія: 10:40 (цілком серій: 18 з 18)
Якість: 1080p

Відео: кодек: розмір кадру: 1916х1076 бітрейт: 5200 кб/с
Аудіо # 1: мова: українська переклад: професійний дубльований кодек: 2.0 бітрейт: 192 кб/с
Озвучення:
Аудіо # 2: мова: англійська переклад: оригінал кодек: 5.1 бітрейт: 384 кб/с
Аудіо # 3: мова: англійська переклад: оригінал кодек: 2.0 бітрейт: 160 кб/с
Субтитри: мова: англійська тип: програмні (м'які) формат: *.srt
Перелік серій
01 Зламаний / Fractured
02 Память / Memory
03 Оулспарк / Allspark
04 Подорож / The Journey
05 Біла імла / Whiteout
06 Мегатрон – мій герой / Megatron Is My Hero
07 Куб / Cube
08 Критична швидкість / Terminal Velocity
09 Шедоустрайкер / Shadowstriker
10 Маккадамс / MacCadam’s
11 Саботаж / Sabotage
12 Teletraan-X
13 Matrix of Leadership
14 Siloed
15 King of the Dinosaurs
16 The Extinction Event
17 Awaken Sleeping Giants
18 Eruption
Про файл:
General
Unique ID : 172576905412529059938845941574940921415 (0x81D51A5D2EF9B47B31B27DAA575E8E47)
Complete name : G:\Torrents2\MULT\Transformers. Cyberverse S01 1080p \Transformers.Cyberverse.S01E01.Fractured.1080p..
Format :
Format version : Version 4
File size : 455 MiB
Duration : 10 min 47 s
Overall bit rate : 5 892 kb/s
Movie name : Transformers. Cyberverse S01 1080p by sergiyko
Encoded date : UTC 2018-12-08 09:51:57
Writing application : v29.0.0 ('Like It Or Not') 64-bit
Writing library : libebml v1.3.6 + v1.4.9

Video
ID : 1
Format : AVC
Format/Info : Advanced Video Codec
Format profile : [email protected]
Format settings : CABAC / 4 Ref Frames
Format settings, CABAC : Yes
Format settings, ReFrames : 4 frames
Codec ID : V_MPEG4/ISO/AVC
Duration : 10 min 47 s
Bit rate : 5 157 kb/s
Width : 1 916 pixels
Height : 1 076 pixels
Display aspect ratio : 16:9
Frame rate mode : Constant
Frame rate : 23.976 (24000/1001) FPS
Color space : YUV
Chroma subsampling : 4:2:0
Bit depth : 8 bits
Scan type : Progressive
Bits/(Pixel*Frame) : 0.104
Stream size : 398 MiB (88%)
Title : S01E01.Fractured
Language : English
Default : Yes
Forced : No
Color range : Limited
Color primaries : BT.709
Transfer characteristics : BT.709
Matrix coefficients : BT.709

Audio #1
ID : 2
Format : AC-3
Format/Info : Audio Coding 3
Commercial name : Dolby Digital
Codec ID : A_AC3
Duration : 10 min 47 s
Bit rate mode : Constant
Bit rate : 192 kb/s
Channel(s) : 2 channels
Channel layout : L R
Sampling rate : 48.0 kHz
Frame rate : 31.250 FPS (1536 SPF)
Bit depth : 16 bits
Compression mode : Lossy
Stream size : 14.8 MiB (3%)
Title : DUB | ПлюсПлюс
Language : Ukrainian
Service kind : Complete Main
Default : Yes
Forced : Yes

Audio #2
ID : 3
Format : AC-3
Format/Info : Audio Coding 3
Commercial name : Dolby Digital
Codec ID : A_AC3
Duration : 10 min 47 s
Bit rate mode : Constant
Bit rate : 384 kb/s
Channel(s) : 6 channels
Channel layout : L R C LFE Ls Rs
Sampling rate : 48.0 kHz
Frame rate : 31.250 FPS (1536 SPF)
Bit depth : 16 bits
Compression mode : Lossy
Stream size : 29.6 MiB (7%)
Title : Original DD 5.1
Language : English
Service kind : Complete Main
Default : No
Forced : No

Audio #3
ID : 4
Format : LC
Format/Info : Advanced Audio Codec Low Complexity
Codec ID : A_AAC-2
Duration : 10 min 47 s
Bit rate : 156 kb/s
Channel(s) : 2 channels
Channel layout : L R
Sampling rate : 48.0 kHz
Frame rate : 46.875 FPS (1024 SPF)
Compression mode : Lossy
Stream size : 12.0 MiB (3%)
Title : Original 2.0
Language : English
Default : No
Forced : No

Text
ID : 5
Format : UTF-8
Codec ID : S_TEXT/UTF8
Codec ID/Info : UTF-8 Plain Text
Duration : 10 min 30 s
Bit rate : 53 b/s
Count of elements : 167
Stream size : 4.14 KiB (0%)
Title : CC
Language : English
Default : No
Forced : No
Скріншоти:



Запис/зведення: sergiyko


Бронзовий реліз (на рейтинг впливає 75% завантаженого)
 Трекер:    Зареєстрований   

Завантажити / скачати мультфільм українською



відео для новачків



 Зареєстрований:   2019-01-16 20:46
 Розмір:   7.05 GB 
 Оцінка мультсеріалу:   9.3/10 (Голосів: 13)
   
sergiyko.5 
VIP


З нами з: 25.02.16
Востаннє: 15.11.19
Повідомлень: 2740

2018-12-08 12:10  
Додав 3 серію
sergiyko.5 
VIP


З нами з: 25.02.16
Востаннє: 15.11.19
Повідомлень: 2740

2018-12-19 18:00  
Додав 4-11 серії.
Jani307 
Свій


З нами з: 09.06.14
Востаннє: 14.11.19
Повідомлень: 113

2018-12-20 08:07  
Цитата:
десептикони стають після їх друзів

Ці вже мені десептикони, що люблять ставати після друзів Wide grin

sergiyko.5 
VIP


З нами з: 25.02.16
Востаннє: 15.11.19
Повідомлень: 2740

2019-01-16 20:47  
Додав нові серії. За данними вікі це всі серії на даний час.
Dert 
Частий відвідувач


З нами з: 01.01.09
Востаннє: 25.10.19
Повідомлень: 34

2019-03-18 23:09  
Jani307
Ага, он як їм обличчя покривило Wide grin

Kamurai 
Новенький


З нами з: 05.09.18
Востаннє: 08.11.19
Повідомлень: 1

2019-11-08 23:48  
Вже вийшли нові серії. Чи варто очікувати оновлення роздачі?
sergiyko.5 
VIP


З нами з: 25.02.16
Востаннє: 15.11.19
Повідомлень: 2740

2019-11-08 23:51  
Kamurai
Де вони вийшли? Мені про це нічого не відомо.

Ваш часовий пояс: GMT + 2 Години

Нова тема   Відповісти