Новачок / The Rookie (1990) AVC Ukr/Eng | Sub Eng

Нові коментарі

Нова тема   Відповісти
Автор Повідомлення
staf777 
Відео Гуртом - підтримка та поширення
Відео Гуртом - підтримка та поширення


З нами з: 16.11.16
Востаннє: 06.12.19
Повідомлень: 3038

2018-12-07 22:23  
Новачок / The Rookie (1990) AVC Ukr/Eng | Sub Eng

Новачок / The Rookie (1990) AVC Ukr/Eng | Sub Eng
Оригінальна обкладинка


Жанр: бойовик, трилер, драма, кримінал
Країна: США



Кінокомпанія: Kazanjian/Siebert Productions, Malpaso Productions, Warner Bros. Pictures
Режисер: Клінт Іствуд
Актори: Клінт Іствуд, Чарлі Шин, Рауль Хуліа, Соня Брага, Том Скерріт, Лара Флінн Бойл, Пепе Серна, Мазко Родрігес, Піт Рендалл, Донна Мітчелл

Сюжет:
Детективу з Лос-Анджелеса, Ніку Пуловські, який займається розкриттям викрадень дорогих авто, після загибелі його напарника дають в помічники новачка - Девіда Аккермана. Девід, цілком успішний хлопець з багатої сім'ї, що закінчив університет. В дитинстві він став мимовільним винуватцем загибелі брата і через це він відчуває страх і докори сумління. Халепа, в яку вони з Ніком потрапляють, переслідуючи ватажка банди викрадачів, Строма, змусить його перебороти свій страх...


Тривалість: 02:00:45
Якість: AVC
Відео:
кодек:
розмір кадру: 1024х430
бітрейт: 1888 кб/с

Аудіо # 1:
мова: українська
переклад: багатоголосий закадровий
кодек: 5.1
бітрейт: 384 кб/с

Аудіо # 2:
мова: англійська
переклад: оригінал
кодек: 5.1
бітрейт: 384 кб/с

Субтитри:
мова: англійська
тип: програмні (м'які)
формат: *.srt
Info
General
Unique ID : 115983389447177926726459926704440028674 (0x57419699703D00D7C150D74D46352E02)
Complete name : N:\ The Rookie (1990) [Ukr,Eng sub.Eng] AVC [Hurtom].
Format :
Format version : Version 4 / Version 2
File size : 2.24 GiB
Duration : 2 h 0 min
Overall bit rate : 2 658 kb/s
Movie name : The Rookie (1990) [Ukr,Eng sub.Eng] AVC [Hurtom]
Encoded date : UTC 2018-12-07 19:15:54
Writing application : v24.0.0 ('Beyond The Pale') 64-bit
Writing library : libebml v1.3.6 + v1.4.9
Cover : Yes
Attachments : cover.jpg

Video
ID : 1
Format : AVC
Format/Info : Advanced Video Codec
Format profile : [email protected]
Format settings : CABAC / 8 Ref Frames
Format settings, CABAC : Yes
Format settings, ReFrames : 8 frames
Codec ID : V_MPEG4/ISO/AVC
Duration : 2 h 0 min
Bit rate : 1 888 kb/s
Width : 1 024 pixels
Height : 430 pixels
Display aspect ratio : 2.40:1
Frame rate mode : Constant
Frame rate : 23.976 (23976/1000) FPS
Color space : YUV
Chroma subsampling : 4:2:0
Bit depth : 8 bits
Scan type : Progressive
Bits/(Pixel*Frame) : 0.179
Stream size : 1.59 GiB (71%)
Writing library : core 133 r2334 a3ac64b
Encoding settings : cabac=1 / ref=8 / deblock=1:-3:-3 / analyse=0x3:0x113 / me=umh / subme=11 / psy=1 / psy_rd=1.00:0.20 / mixed_ref=1 / me_range=32 / chroma_me=1 / trellis=2 / 8x8dct=1 / cqm=0 / deadzone=21,11 / fast_pskip=0 / chroma_qp_offset=-3 / threads=3 / lookahead_threads=1 / sliced_threads=0 / nr=0 / decimate=0 / interlaced=0 / bluray_compat=0 / constrained_intra=0 / bframes=10 / b_pyramid=2 / b_adapt=2 / b_bias=0 / direct=3 / weightb=1 / open_gop=0 / weightp=2 / keyint=240 / keyint_min=23 / scenecut=40 / intra_refresh=0 / rc_lookahead=40 / rc=2pass / mbtree=0 / bitrate=1888 / ratetol=1.0 / qcomp=0.60 / qpmin=0 / qpmax=69 / qpstep=4 / cplxblur=20.0 / qblur=0.5 / vbv_maxrate=50000 / vbv_bufsize=50000 / nal_hrd=none / ip_ratio=1.40 / pb_ratio=1.30 / aq=1:1.00
Language : English
Default : Yes
Forced : Yes

Audio #1
ID : 2
Format : AC-3
Format/Info : Audio Coding 3
Codec ID : A_AC3
Duration : 2 h 0 min
Bit rate mode : Constant
Bit rate : 384 kb/s
Channel(s) : 6 channels
Channel positions : Front: L C R, Side: L R, LFE
Sampling rate : 48.0 kHz
Frame rate : 31.250 FPS (1536 SPF)
Bit depth : 16 bits
Compression mode : Lossy
Stream size : 332 MiB (14%)
Title : UA-MVO, НТН
Language : Ukrainian
Service kind : Complete Main
Default : Yes
Forced : Yes

Audio #2
ID : 3
Format : AC-3
Format/Info : Audio Coding 3
Codec ID : A_AC3
Duration : 2 h 0 min
Bit rate mode : Constant
Bit rate : 384 kb/s
Channel(s) : 6 channels
Channel positions : Front: L C R, Side: L R, LFE
Sampling rate : 48.0 kHz
Frame rate : 31.250 FPS (1536 SPF)
Bit depth : 16 bits
Compression mode : Lossy
Stream size : 332 MiB (14%)
Title : 5.1 @ 384 kbps
Language : English
Service kind : Complete Main
Default : No
Forced : No

Text
ID : 4
Format : UTF-8
Codec ID : S_TEXT/UTF8
Codec ID/Info : UTF-8 Plain Text
Duration : 1 h 56 min
Bit rate : 39 b/s
Count of elements : 933
Stream size : 33.9 KiB (0%)
Language : English
Default : No
Forced : No

Menu
00:00:00.000 : :Caught in a Lie
00:02:28.356 : :Grand Theft Autio
00:07:25.736 : :The Tooth Fairy
00:11:15.131 : :Freeway Speedway
00:15:22.254 : :Nick's New Partner
00:17:39.016 : :Lunch Aftertaste
00:21:30.038 : :Looking Over His Shoulder
00:24:12.324 : :Something's Gonna Happen
00:25:40.538 : :Where the Fun Starts
00:29:44.949 : :Junkyard Persuasion
00:34:10.089 : :Nick's Wheels
00:38:12.540 : :No Guarantee
00:43:34.152 : :Morales Goes For a Ride
00:47:15.873 : :Ain't Gonna Lose This One
00:50:10.090 : :Foiled Heist
00:54:22.425 : :Improvised Hostage
00:56:57.997 : :Stop Being Scared
00:59:31.150 : :Go With a Bang
01:01:09.290 : :Ackerman Fired Up
01:06:31.445 : :Where He Wants Them
01:08:36.362 : :Taken at the Cleaners
01:12:25.299 : :Through Making Mistakes
01:15:03.916 : :Biting Liesl's Bullet
01:20:47.841 : :Sarah in Danger
01:25:18.238 : :Next Time the Kneecaps
01:27:58.273 : :No Getaway For Max
01:30:31.634 : :Shooting the Works
01:33:29.770 : :Fasten Your Seat Belt
01:37:09.573 : :Pickup - and Detour
01:43:00.883 : :Runway Mayhem
01:46:49.528 : :Terminal Terror
01:49:07.707 : :The Amateur's End
01:50:08.977 : :Not One Good Reason
01:54:04.420 : :David's New Partner
01:56:58.094 : :End Credits
02:00:45.321 : :End







подяка за наданий звук пані - olgaya
подяка за синхронізацію пану Romario_O
подяка за укр. постер пану dr_stas

Джерело: &
Особиста оцінка: 0 - не дивився
ЗАЛИШАЙТЕСЬ ЯКОМОГА ДОВШЕ НА РОЗДАЧІ!

СКАЧАВ САМ - ДАЙ СКАЧАТИ ІНШИМ



Срібний реліз (на рейтинг впливає 50% завантаженого)
 Трекер:    Зареєстрований   

Завантажити / скачати фільм українською



відео для новачків



 Зареєстрований:   2018-12-08 11:28
 Розмір:   2.24 GB 
 Оцінка фільму:   10/10 (Голосів: 7)
   
Інші релізи
   Новачок / The Rookie (1990) Remux 1080p Ukr/Eng | Sub Eng MakRA  2 / 0   19.4 GB   2019-09-15 00:09 
   Новачок / The Rookie (1990) 1080p Ukr/Eng | Sub Eng drop_plz  1 / 0   11.01 GB   2018-09-03 19:05 
   Новачок / The Rookie (1990) 720p Ukr/Eng | Sub Eng staf777  2 / 0   6.08 GB   2017-02-19 09:29 
   Новачок / The Rookie (1990) Ukr/Eng | Sub Eng Romario_O  2 / 0   2.18 GB   2010-10-16 20:13 
Ваш часовий пояс: GMT + 2 Години

Нова тема   Відповісти