Повітряна тюрма (Повітряна в'язниця) / Con Air (1997) AVC Ukr/Eng | Sub Ukr/Eng

Нові коментарі

Нова тема   Відповісти
Автор Повідомлення
staf777 
Відео Гуртом - підтримка та поширення
Відео Гуртом - підтримка та поширення


З нами з: 16.11.16
Востаннє: 18.04.19
Повідомлень: 2258

2018-12-07 20:22  
Повітряна тюрма (Повітряна в'язниця) / Con Air (1997) AVC Ukr/Eng | Sub Ukr/Eng

Повітряна тюрма (Повітряна в'язниця) / Con Air (1997) AVC Ukr/Eng | Sub Ukr/Eng


Жанр: бойовик, трилер, кримінальний
Країна: США



Кінокомпанія: Touchstone Pictures
Режисер: Саймон Вест
Актори: Ніколас Кейдж, Джон К'юсак, Джон Малкович, Вінг Реймс, Нік Чінланд, Стів Бушемі, Колм Міні, Рейчел Тікотін, Девід Чаппелль, Майкелті Вільямсон, Денні Трехо

Сюжет:
"Повітряна в'язниця" - транспортний підрозділ поліції США який перевозить особливо небезпечних злочинців. Одним із цих рейсів повертається додому Камерон По, звільнений із в'язниці після 8 років ув'язнення. Він так довго чекав цього і нічого не повинно зупинити його на дорозі додому. Раптово Камерон стає свідком захоплення літака, організованого небезпечнішим рецидивістом Сайрусом «Вірусом» Гріссомом.

Він вирішує взяти ситуацію в свої руки і допомогти поліції, адже для нього це-єдиний шанс потрапити додому. Тільки одна людина на землі готова повірити йому - шериф Вінс Ларкін змушений переборювати неймовірні труднощі, щоб попередити втечу злочинців і не дозволити своїм начальникам підірвати літак разом зі всіма пасажирами.


Тривалість: 01:55:25
Якість: AVC
Відео:
кодек:
розмір кадру: 1024x426
бітрейт: 1681 кб/с

Аудіо # 1:
мова: українська
переклад: двоголосий закадровий
кодек: 5.1
бітрейт: 384 кб/с

Аудіо # 2:
мова: англійська
переклад: оригінал
кодек: 5.1
бітрейт: 448 кб/с

Субтитри # 1:
мова: українська
тип: програмні (м'які)
формат: *.srt

Субтитри # 2:
мова: англійська
тип: програмні (м'які)
формат: *.srt
Info
General
Unique ID : 68818189185225422352571389404198087644 (0x33C5E6B042E0E8CCB40B3BD94FE62BDC)
Complete name : N:\Фільми AVC\Бойовик\Con Air (1997) [Ukr, Eng] AVC [Hurtom].
Format :
Format version : Version 4 / Version 2
File size : 2.03 GiB
Duration : 1 h 55 min
Overall bit rate : 2 515 kb/s
Movie name : Con Air (1997) [Ukr, Eng] AVC [Hurtom]
Encoded date : UTC 2018-12-07 16:50:20
Writing application : v24.0.0 ('Beyond The Pale') 64-bit
Writing library : libebml v1.3.6 + v1.4.9
Cover : Yes
Attachments : cover.jpg

Video
ID : 1
Format : AVC
Format/Info : Advanced Video Codec
Format profile : [email protected]
Format settings : CABAC / 8 Ref Frames
Format settings, CABAC : Yes
Format settings, ReFrames : 8 frames
Codec ID : V_MPEG4/ISO/AVC
Duration : 1 h 55 min
Bit rate : 1 681 kb/s
Width : 1 024 pixels
Height : 426 pixels
Display aspect ratio : 2.40:1
Frame rate mode : Constant
Frame rate : 23.976 (24000/1001) FPS
Color space : YUV
Chroma subsampling : 4:2:0
Bit depth : 8 bits
Scan type : Progressive
Bits/(Pixel*Frame) : 0.161
Stream size : 1.36 GiB (67%)
Writing library : core 138 r2356 a1d3d17
Encoding settings : cabac=1 / ref=8 / deblock=1:-3:-2 / analyse=0x3:0x113 / me=umh / subme=10 / psy=1 / psy_rd=1.00:0.05 / mixed_ref=1 / me_range=32 / chroma_me=1 / trellis=2 / 8x8dct=1 / cqm=0 / deadzone=21,11 / fast_pskip=0 / chroma_qp_offset=-3 / threads=6 / lookahead_threads=1 / sliced_threads=0 / nr=0 / decimate=0 / interlaced=0 / bluray_compat=0 / constrained_intra=0 / bframes=8 / b_pyramid=2 / b_adapt=2 / b_bias=0 / direct=3 / weightb=1 / open_gop=0 / weightp=2 / keyint=240 / keyint_min=24 / scenecut=40 / intra_refresh=0 / rc_lookahead=40 / rc=2pass / mbtree=1 / bitrate=1681 / ratetol=1.0 / qcomp=0.60 / qpmin=0 / qpmax=69 / qpstep=4 / cplxblur=20.0 / qblur=0.5 / ip_ratio=1.40 / aq=1:1.00
Language : English
Default : Yes
Forced : No

Audio #1
ID : 2
Format : AC-3
Format/Info : Audio Coding 3
Codec ID : A_AC3
Duration : 1 h 55 min
Bit rate mode : Constant
Bit rate : 384 kb/s
Channel(s) : 6 channels
Channel positions : Front: L C R, Side: L R, LFE
Sampling rate : 48.0 kHz
Frame rate : 31.250 FPS (1536 SPF)
Bit depth : 16 bits
Compression mode : Lossy
Stream size : 317 MiB (15%)
Title : [1+1]
Language : Ukrainian
Service kind : Complete Main
Default : Yes
Forced : Yes

Audio #2
ID : 3
Format : AC-3
Format/Info : Audio Coding 3
Codec ID : A_AC3
Duration : 1 h 55 min
Bit rate mode : Constant
Bit rate : 448 kb/s
Channel(s) : 6 channels
Channel positions : Front: L C R, Side: L R, LFE
Sampling rate : 48.0 kHz
Frame rate : 31.250 FPS (1536 SPF)
Bit depth : 16 bits
Compression mode : Lossy
Stream size : 370 MiB (18%)
Language : English
Service kind : Complete Main
Default : No
Forced : No

Text #1
ID : 4
Format : UTF-8
Codec ID : S_TEXT/UTF8
Codec ID/Info : UTF-8 Plain Text
Duration : 1 h 47 min
Bit rate : 92 b/s
Count of elements : 1171
Stream size : 72.8 KiB (0%)
Language : Ukrainian
Default : No
Forced : No

Text #2
ID : 5
Format : UTF-8
Codec ID : S_TEXT/UTF8
Codec ID/Info : UTF-8 Plain Text
Duration : 1 h 54 min
Bit rate : 59 b/s
Count of elements : 1221
Stream size : 49.7 KiB (0%)
Language : English
Default : No
Forced : No

Menu
00:00:00.000 : :Chapter 01
00:10:03.394 : :Chapter 02
00:28:25.912 : :Chapter 03
00:42:52.528 : :Chapter 04
00:57:22.981 : :Chapter 05
01:09:02.596 : :Chapter 06
01:22:53.301 : :Chapter 07
01:34:51.143 : :Chapter 08
01:40:36.572 : :Chapter 09
01:48:10.525 : :Chapter 10







Велика подяка Romario_O за звукозапис з ТБ, _oles за синхронізацію та hellforces за українізацію постера
Джерело: &
Особиста оцінка: 0 - не дивився
ЗАЛИШАЙТЕСЬ ЯКОМОГА ДОВШЕ НА РОЗДАЧІ!

СКАЧАВ САМ - ДАЙ СКАЧАТИ ІНШИМ



Срібний реліз (на рейтинг впливає 50% завантаженого)
 Трекер:    Зареєстрований   

Завантажити / скачати фільм українською



відео для новачків



 Зареєстрований:   2018-12-07 21:27
 Розмір:   2.03 GB 
 Оцінка фільму:   8.9/10 (Голосів: 9)
   
Інші релізи
bot 
робот


З нами з: 30.09.07
Востаннє: 26.05.05
Повідомлень: 21205

2018-12-07 21:27  
Тему перенесено з Анонси релізів до форуму Фільми


staf777

Ваш часовий пояс: GMT + 2 Години

Нова тема   Відповісти