Янголи Чарлі. Дилогія / Charlie's Angels. Dilogy (2000-2003) 1080p H.265 Ukr/Eng | Sub Eng

Нові коментарі

Нова тема   Відповісти
Автор Повідомлення
Anonymous 







2018-12-07 12:01  
Янголи Чарлі. Дилогія / Charlie's Angels. Dilogy (2000-2003) 1080p H.265 Ukr/Eng | Sub Eng

Янголи Чарлі. Дилогія / Charlie's Angels. Dilogy (2000-2003) 1080p H.265 Ukr/Eng | Sub Eng

1. 2.

1. Янголи Чарлі / Charlie's Angels (2000) 1080p H.265 Ukr/Eng | Sub Eng
Янголи Чарлі / Charlie's Angels (2000) 1080p H.265 Ukr/Eng | Sub Eng

Янголи Чарлі. Дилогія / Charlie's Angels. Dilogy (2000-2003) 1080p H.265 Ukr/Eng | Sub Eng


Жанр: комедія, бойовик, пригодницький
Країна: США, Німеччина
Кінокомпанія: Columbia Tristar
Режисер: Джозеф МакГінті Нікол (МакДжі)
Актори: Дрю Беррімор, Камерон Діаз, Люсі Ліу, Тім Керрі, Білл Мюррей, Кріспін Гловер, Келлі Лінч, Сем Роквелл

Сюжет:
Янголи Чарлі, суперсекретний елітний спецпідрозділ, якому довіряють лише нездійсненні завдання. За допомогою новітніх технологій, сучасної зброї, бойових мистецтв і убивчої жіночої чарівності Янголи Чарлі творять чудеса. Але справжнім випробуванням стане лише це останнє завдання...

Тривалість: 01:38:23
Якість:
Відео:
кодек: H.265 (HEVC)
розмір кадру: 1920 x 800
бітрейт: 9 130 кб/с
частота кадрів: 23.976 fps
бітова глибина: 10 біт
Увага! Перед завантаженням переконайтесь, що ваш пристрій відтворення (та/або ПЗ) підтримує H.265 (HEVC)

Аудіо # 1:
мова: українська
переклад: багатоголосий закадровий
кодек: AC-3 2.0
бітрейт: 192 кб/с

Аудіо # 2:
мова: англійська
переклад: оригінал
кодек: AC-3 5.1
бітрейт: 384 кб/с

Субтитри # 1:
мова: англійська (Full),
тип: програмні (м'які)
формат: *.srt


Info
Код:
General
Unique ID                                : 161998033145875143990499660896998792497 (0x79DFAFB124C6AEB767F3732BE4DC1D31)
Complete name                            : D:\Video\Charlie's Angels. Dilogy (2000-2003) 1080p H.265 [UKR_ENG]\1. Charlie's Angels (2000) 1080p H.265 [UKR_ENG].
Format                                   :
Format version                           : Version 4 / Version 2
File size                                : 6.67 GiB
Duration                                 : 1 h 38 min
Overall bit rate                         : 9 703 kb/s
Movie name                               : Charlie's Angels (2000)
Encoded date                             : UTC 2018-12-06 20:54:48
Writing application                      : v20.0.0 ('I Am The Sun') 32-bit
Writing library                          : libebml v1.3.5 + v1.4.8
Cover                                    : Yes
Attachments                              : cover.jpg

Video
ID                                       : 1
Format                                   : HEVC
Format/Info                              : High Efficiency Video Coding
Format profile                           : Main [email protected]@High
Codec ID                                 : V_MPEGH/ISO/HEVC
Duration                                 : 1 h 38 min
Bit rate                                 : 9 130 kb/s
Width                                    : 1 920 pixels
Height                                   : 800 pixels
Display aspect ratio                     : 2.40:1
Frame rate mode                          : Constant
Frame rate                               : 23.976 (24000/1001) FPS
Color space                              : YUV
Chroma subsampling                       : 4:2:0
Bit depth                                : 10 bits
Bits/(Pixel*Frame)                       : 0.248
Stream size                              : 6.27 GiB (94%)
Title                                    : Charlie's Angels (2000)
Writing library                          : x265 2.8+74-fd517ae68f93:[Mac OS X][clang 9.1.0][64 bit] 10bit
Encoding settings                        : cpuid=1111039 / frame-threads=14 / wpp / no-pmode / no-pme / no-psnr / no-ssim / log-level=3 / input-csp=1 / input-res=1920x800 / interlace=0 / total-frames=0 / level-idc=41 / high-tier=1 / uhd-bd=0 / ref=5 / allow-non-conformance / no-repeat-headers / annexb / no-aud / no-hrd / info / hash=0 / no-temporal-layers / open-gop / min-keyint=23 / keyint=240 / gop-lookahead=0 / bframes=10 / b-adapt=2 / b-pyramid / bframe-bias=0 / rc-lookahead=60 / lookahead-slices=5 / scenecut=40 / radl=0 / no-intra-refresh / ctu=64 / min-cu-size=8 / rect / amp / max-tu-size=32 / tu-inter-depth=4 / tu-intra-depth=4 / limit-tu=0 / rdoq-level=2 / dynamic-rd=0.00 / no-ssim-rd / signhide / no-tskip / nr-intra=0 / nr-inter=0 / no-constrained-intra / no-strong-intra-smoothing / max-merge=5 / limit-refs=2 / no-limit-modes / me=3 / subme=7 / merange=57 / temporal-mvp / weightp / weightb / no-analyze-src-pics / deblock=-3:-3 / no-sao / no-sao-non-deblock / rd=6 / no-early-skip / rskip / no-fast-intra / no-tskip-fast / no-cu-lossless / no-b-intra / no-splitrd-skip / rdpenalty=0 / psy-rd=2.00 / psy-rdoq=1.00 / no-rd-refine / no-lossless / cbqpoffs=0 / crqpoffs=0 / rc=crf / crf=18.0 / qcomp=0.60 / qpstep=4 / stats-write=0 / stats-read=0 / vbv-maxrate=50000 / vbv-bufsize=50000 / vbv-init=0.9 / crf-max=0.0 / crf-min=0.0 / ipratio=1.40 / pbratio=1.30 / aq-mode=2 / aq-strength=1.00 / cutree / zone-count=0 / no-strict-cbr / qg-size=32 / no-rc-grain / qpmax=69 / qpmin=0 / no-const-vbv / sar=1 / overscan=0 / videoformat=5 / range=0 / colorprim=2 / transfer=2 / colormatrix=2 / chromaloc=0 / display-window=0 / max-cll=0,0 / min-luma=0 / max-luma=1023 / log2-max-poc-lsb=8 / vui-timing-info / vui-hrd-info / slices=1 / no-opt-qp-pps / no-opt-ref-list-length-pps / no-multi-pass-opt-rps / scenecut-bias=0.00 / no-opt-cu-delta-qp / aq-motion / no-hdr / no-hdr-opt / no-dhdr10-opt / no-idr-recovery-sei / analysis-reuse-level=5 / scale-factor=0 / refine-intra=0 / refine-inter=0 / refine-mv=0 / no-limit-sao / ctu-info=0 / no-lowpass-dct / refine-mv-type=0 / copy-pic=1 / max-ausize-factor=1.0 / no-dynamic-refine / no-single-sei
Language                                 : English
Default                                  : Yes
Forced                                   : No

Audio #1
ID                                       : 2
Format                                   : AC-3
Format/Info                              : Audio Coding 3
Codec ID                                 : A_AC3
Duration                                 : 1 h 38 min
Bit rate mode                            : Constant
Bit rate                                 : 192 kb/s
Channel(s)                               : 2 channels
Channel positions                        : Front: L R
Sampling rate                            : 48.0 kHz
Frame rate                               : 31.250 FPS (1536 SPF)
Bit depth                                : 16 bits
Compression mode                         : Lossy
Stream size                              : 135 MiB (2%)
Title                                    : БЗ - K1
Language                                 : Ukrainian
Service kind                             : Complete Main
Default                                  : Yes
Forced                                   : No

Audio #2
ID                                       : 3
Format                                   : AC-3
Format/Info                              : Audio Coding 3
Codec ID                                 : A_AC3
Duration                                 : 1 h 38 min
Bit rate mode                            : Constant
Bit rate                                 : 384 kb/s
Channel(s)                               : 6 channels
Channel positions                        : Front: L C R, Side: L R, LFE
Sampling rate                            : 48.0 kHz
Frame rate                               : 31.250 FPS (1536 SPF)
Bit depth                                : 16 bits
Compression mode                         : Lossy
Stream size                              : 270 MiB (4%)
Title                                    : Original
Language                                 : English
Service kind                             : Complete Main
Default                                  : No
Forced                                   : No

Text
ID                                       : 4
Format                                   : UTF-8
Codec ID                                 : S_TEXT/UTF8
Codec ID/Info                            : UTF-8 Plain Text
Duration                                 : 1 h 31 min
Bit rate                                 : 38 b/s
Count of elements                        : 878
Stream size                              : 25.7 KiB (0%)
Title                                    : Full
Language                                 : English
Default                                  : No
Forced                                   : No

Menu
00:00:00.000                             : :Chapter 01
00:05:23.239                             : :Chapter 02
00:11:30.272                             : :Chapter 03
00:18:14.093                             : :Chapter 04
00:23:14.518                             : :Chapter 05
00:28:45.265                             : :Chapter 06
00:35:33.548                             : :Chapter 07
00:39:43.672                             : :Chapter 08
00:48:38.749                             : :Chapter 09
00:52:18.468                             : :Chapter 10
00:59:11.714                             : :Chapter 11
01:03:02.737                             : :Chapter 12
01:10:10.164                             : :Chapter 13
01:15:41.745                             : :Chapter 14
01:20:49.052                             : :Chapter 15
01:23:20.078                             : :Chapter 16
Світлини



2. Ангели Чарлі. Повний вперед / Charlie's Angels. Full Throttle (2003) 1080p H.265 Ukr/Eng | Sub Eng
Ангели Чарлі. Повний вперед / Charlie's Angels. Full Throttle (2003) 1080p H.265 Ukr/Eng | Sub Eng

Янголи Чарлі. Дилогія / Charlie's Angels. Dilogy (2000-2003) 1080p H.265 Ukr/Eng | Sub Eng


Жанр: комедія, бойовик, пригодницький
Країна: США
Кінокомпанія: Columbia Pictures Corporation, Flower Films (II), Tall Trees Productions
Режисер: Джозеф МакГінті Нікол (МакДжі)
Актори: Камерон Діаз (Cameron Diaz), Дрю Беррімор (Drew Barrymore), Люсі Лью (Lucy Liu), Берні Мак (Bernie Mac), Кріспін Гловер (Crispin Glover), Джастін Теру (Justin Theroux), Роберт Патрік (Robert Patrick), Демі Мур (Demi Moore), Родріго Санторо (Rodrigo Santoro), Шиа ЛаБеф (Shia LaBeouf), Метт ЛеБлан (Matt LeBlanc), Люк Вілсон (Luke Wilson)

Сюжет:
Янголи Чарлі, суперсекретний елітний спецпідрозділ, якому довіряють лише нездійсненні завдання. За допомогою новітніх технологій, сучасної зброї, бойових мистецтв і убивчої жіночої чарівності Янголи Чарлі творять чудеса. Але справжнім випробуванням стане лише це останнє завдання...

Тривалість: 01:47:06
Якість:
Відео:
кодек: H.265 (HEVC)
розмір кадру: 1920 x 800
бітрейт: 9 152 кб/с
частота кадрів: 23.976 fps
бітова глибина: 10 біт
Увага! Перед завантаженням переконайтесь, що ваш пристрій відтворення (та/або ПЗ) підтримує H.265 (HEVC)

Аудіо # 1:
мова: українська
переклад: професійний дубльований
кодек: AC-3 5.1
бітрейт: 384 кб/с

Аудіо # 2:
мова: англійська
переклад: оригінал
кодек: AC-3 5.1
бітрейт: 640 кб/с

Субтитри # 1:
мова: англійська (Full),
тип: програмні (м'які)
формат: *.srt


Info
Код:
General
Unique ID                                : 159006868635776185457873186078723857026 (0x779F9BE541082626FB04CBA0F04ADA82)
Complete name                            : D:\Video\Charlie's Angels. Dilogy (2000-2003) 1080p H.265 [UKR_ENG]\2. Charlie's Angels. Full Throttle (2003) 1080p H.265 [UKR_ENG].
Format                                   :
Format version                           : Version 4 / Version 2
File size                                : 7.61 GiB
Duration                                 : 1 h 47 min
Overall bit rate                         : 10.2 Mb/s
Movie name                               : Charlie's Angels. Full Throttle (2003)
Encoded date                             : UTC 2018-11-21 19:42:45
Writing application                      : v20.0.0 ('I Am The Sun') 32-bit
Writing library                          : libebml v1.3.5 + v1.4.8
Cover                                    : Yes
Attachments                              : Cover.jpg

Video
ID                                       : 1
Format                                   : HEVC
Format/Info                              : High Efficiency Video Coding
Format profile                           : Main [email protected]@High
Codec ID                                 : V_MPEGH/ISO/HEVC
Duration                                 : 1 h 47 min
Bit rate                                 : 9 152 kb/s
Width                                    : 1 920 pixels
Height                                   : 800 pixels
Display aspect ratio                     : 2.40:1
Frame rate mode                          : Constant
Frame rate                               : 23.976 (24000/1001) FPS
Color space                              : YUV
Chroma subsampling                       : 4:2:0
Bit depth                                : 10 bits
Bits/(Pixel*Frame)                       : 0.249
Stream size                              : 6.85 GiB (90%)
Title                                    : Charlie's Angels. Full Throttle (2003)
Writing library                          : x265 2.9+2-7e978ed93d60:[Windows][MSVC 1915][64 bit] 10bit
Encoding settings                        : cpuid=1176575 / frame-threads=4 / numa-pools=16 / wpp / no-pmode / no-pme / no-psnr / no-ssim / log-level=2 / input-csp=1 / input-res=1920x800 / interlace=0 / total-frames=154080 / level-idc=41 / high-tier=1 / uhd-bd=0 / ref=5 / no-allow-non-conformance / no-repeat-headers / annexb / no-aud / no-hrd / info / hash=0 / no-temporal-layers / open-gop / min-keyint=23 / keyint=240 / gop-lookahead=0 / bframes=10 / b-adapt=2 / b-pyramid / bframe-bias=0 / rc-lookahead=60 / lookahead-slices=0 / scenecut=40 / radl=0 / no-intra-refresh / ctu=32 / min-cu-size=8 / rect / amp / max-tu-size=32 / tu-inter-depth=4 / tu-intra-depth=2 / limit-tu=1 / rdoq-level=2 / dynamic-rd=0.00 / no-ssim-rd / signhide / no-tskip / nr-intra=0 / nr-inter=0 / no-constrained-intra / no-strong-intra-smoothing / max-merge=5 / limit-refs=2 / limit-modes / me=3 / subme=7 / merange=57 / temporal-mvp / weightp / weightb / no-analyze-src-pics / deblock=-3:-3 / no-sao / no-sao-non-deblock / rd=6 / no-early-skip / rskip / no-fast-intra / no-tskip-fast / no-cu-lossless / b-intra / no-splitrd-skip / rdpenalty=0 / psy-rd=1.60 / psy-rdoq=1.00 / no-rd-refine / no-lossless / cbqpoffs=0 / crqpoffs=0 / rc=crf / crf=19.5 / qcomp=0.70 / qpstep=4 / stats-write=0 / stats-read=0 / vbv-maxrate=50000 / vbv-bufsize=50000 / vbv-init=0.9 / crf-max=0.0 / crf-min=0.0 / ipratio=1.40 / pbratio=1.30 / aq-mode=2 / aq-strength=0.90 / no-cutree / zone-count=0 / no-strict-cbr / qg-size=32 / no-rc-grain / qpmax=69 / qpmin=0 / no-const-vbv / sar=1 / overscan=0 / videoformat=5 / range=0 / colorprim=1 / transfer=1 / colormatrix=1 / chromaloc=0 / display-window=0 / max-cll=0,0 / min-luma=0 / max-luma=1023 / log2-max-poc-lsb=8 / vui-timing-info / vui-hrd-info / slices=1 / no-opt-qp-pps / no-opt-ref-list-length-pps / no-multi-pass-opt-rps / scenecut-bias=0.05 / no-opt-cu-delta-qp / aq-motion / no-hdr / no-hdr-opt / no-dhdr10-opt / no-idr-recovery-sei / analysis-reuse-level=5 / scale-factor=0 / refine-intra=0 / refine-inter=0 / refine-mv=0 / no-limit-sao / ctu-info=0 / no-lowpass-dct / refine-mv-type=0 / copy-pic=1 / max-ausize-factor=1.0 / no-dynamic-refine / no-single-sei
Language                                 : English
Default                                  : Yes
Forced                                   : No
Color range                              : Limited
Color primaries                          : BT.709
Transfer characteristics                 : BT.709
Matrix coefficients                      : BT.709

Audio #1
ID                                       : 2
Format                                   : AC-3
Format/Info                              : Audio Coding 3
Codec ID                                 : A_AC3
Duration                                 : 1 h 47 min
Bit rate mode                            : Constant
Bit rate                                 : 384 kb/s
Channel(s)                               : 6 channels
Channel positions                        : Front: L C R, Side: L R, LFE
Sampling rate                            : 48.0 kHz
Frame rate                               : 31.250 FPS (1536 SPF)
Bit depth                                : 16 bits
Compression mode                         : Lossy
Stream size                              : 294 MiB (4%)
Title                                    : ПД - Kanal Ukraina
Language                                 : Ukrainian
Service kind                             : Complete Main
Default                                  : No
Forced                                   : No

Audio #2
ID                                       : 3
Format                                   : AC-3
Format/Info                              : Audio Coding 3
Codec ID                                 : A_AC3
Duration                                 : 1 h 47 min
Bit rate mode                            : Constant
Bit rate                                 : 640 kb/s
Channel(s)                               : 6 channels
Channel positions                        : Front: L C R, Side: L R, LFE
Sampling rate                            : 48.0 kHz
Frame rate                               : 31.250 FPS (1536 SPF)
Bit depth                                : 16 bits
Compression mode                         : Lossy
Stream size                              : 490 MiB (6%)
Title                                    : Original
Language                                 : English
Service kind                             : Complete Main
Default                                  : No
Forced                                   : No

Text
ID                                       : 4
Format                                   : UTF-8
Codec ID                                 : S_TEXT/UTF8
Codec ID/Info                            : UTF-8 Plain Text
Duration                                 : 1 h 46 min
Bit rate                                 : 41 b/s
Count of elements                        : 964
Stream size                              : 32.5 KiB (0%)
Title                                    : Full
Language                                 : English
Default                                  : No
Forced                                   : No

Menu
00:00:00.000                             : en:Chapter 01
00:09:06.295                             : en:Chapter 02
00:13:05.493                             : en:Chapter 03
00:19:37.342                             : en:Chapter 04
00:29:12.917                             : en:Chapter 05
00:36:28.769                             : en:Chapter 06
00:46:09.725                             : en:Chapter 07
00:51:52.943                             : en:Chapter 08
00:56:59.916                             : en:Chapter 09
01:03:13.706                             : en:Chapter 10
01:06:59.223                             : en:Chapter 11
01:13:53.262                             : en:Chapter 12
01:19:54.164                             : en:Chapter 13
01:26:50.663                             : en:Chapter 14
01:31:32.778                             : en:Chapter 15
01:36:27.990                             : en:Chapter 16
Світлини




Джерело:
Особиста оцінка: 0 - не дивився


>>> Усі мої релізи <<<



Срібний реліз (на рейтинг впливає 50% завантаженого)
 Трекер:    Зареєстрований   

Завантажити / скачати фільм українською



відео для новачків



 Зареєстрований:   2018-12-07 12:01
 Розмір:   14.29 GB 
 Оцінка фільму:   8.8/10 (Голосів: 9)
   
Інші релізи
hetzendorf 
Забанено
Забанено


З нами з: 23.07.15
Востаннє: 07.12.19
Повідомлень: 2585

2019-04-14 14:57  
Недотепна й несмішна пародія на поганий бойовик. І це лише 1-й фільм, 2-й не схотів дивитися.
3/10

Ваш часовий пояс: GMT + 2 Години

Нова тема   Відповісти