Ден Браун. Екранізації / Dan Brown. Ecranisations (2006-2016) 1080p H.265 Ukr/Eng | Sub Eng

Нові коментарі

Нова тема   Відповісти
Автор Повідомлення
Anonymous 







2018-12-07 12:31  
Ден Браун. Екранізації / Dan Brown. Ecranisations (2006-2016) 1080p H.265 Ukr/Eng | Sub Eng

Ден Браун. Екранізації / Dan Brown. Ecranisations (2006-2016) 1080p H.265 Ukr/Eng | Sub Eng

Країна: бойовик, трилер, драма, кримінальний, детектив, пригодницький
Кінокомпанія: Columbia Pictures, Sony Pictures Studios, Imagine Entertainment, Skylark Productions , LStar Capital, Mid Atlantic Films
Режисер: Рон Говард / Ron Howard

1. 2. 3.

1. Код да Вінчі (Театральна версія) / The Da Vinci Code (2006) (Theatrical Cut, Remastered) 1080p H.265 Ukr/Eng | Sub Eng
Код да Вінчі [Театральна версія] / The Da Vinci Code (2006) [Theatrical Cut, Remastered] 1080p H.265 Ukr/Eng | Sub Eng

Ден Браун. Екранізації / Dan Brown. Ecranisations (2006-2016) 1080p H.265 Ukr/Eng | Sub Eng


Жанр: детектив, трилер
Країна: США, Мальта, Франція, Велика Британія
Кінокомпанія: Columbia Pictures, Imagine Entertainment, Skylark Productions
Режисер: Рон Говард
Актори: Том Генкс, Одрі Тоту, Ієн МакКеллен, Жан Рено, Пол Беттані, Альфред Моліна, Юрґен Прохнов, Жан-Ів Бертелут, Етьєн Шіко, Жан-П'єр Марьель
Сюжет:
Роберта Ленґдона, прославленого професора в області символістики, запрошують до Лувра, де був убитий куратор музею. Але перед смертю йому вдалося залишити цілий ряд символів і загадок. Піддаючи своє життя смертельній небезпеці, Ленґдон за допомогою Софі Неві, криптолога поліції, знаходить серію приголомшливих головоломок, захованих в роботах Леонардо да Вінчі, які вказують на існування секретного суспільства, що оберігає стародавню таємницю, вік якої вже 2000 років. Цей дует відправляється в Париж, Лондон і Шотландію на захопливі пошуки розгадки таємничого коду.

Тривалість: 02:28:45
Якість:
Відео:
кодек: H.265 (HEVC)
розмір кадру: 1920 x 804
бітрейт: 5 814 кб/с
частота кадрів: 23.976 fps
біт піксель: 0.157 BPP (Bits Per Pixel)
бітова глибина: 10 біт
Увага! Перед завантаженням переконайтесь, що ваш пристрій відтворення (та/або ПЗ) підтримує H.265 (HEVC)

Аудіо # 1:
мова: українська
переклад: багатоголосий закадровий
кодек: AC-3 2.0
бітрейт: 192 кб/с

Аудіо # 2:
мова: англійська
переклад: оригінал
кодек: AC-3 5.1
бітрейт: 448 кб/с

Субтитри # 1:
мова: англійська (Full),
тип: програмні (м'які)
формат: *.srt


Info
Код:
General
Unique ID                                : 49828419938080721756416884219222898071 (0x257C9AC754531BD6F53A3D0A8B2F3597)
Complete name                            : D:\Video\Dan Brown. Ecranisations (2006-2016) 1080p H.265 [UKR_ENG]\1. The Da Vinci Code (2006) [Remastered, Theatrical Cut] 1080p H.265 [UKR_ENG].
Format                                   :
Format version                           : Version 4 / Version 2
File size                                : 6.71 GiB
Duration                                 : 2 h 28 min
Overall bit rate                         : 6 456 kb/s
Movie name                               : The Da Vinci Code (2006) [RM, TC]
Encoded date                             : UTC 2018-12-04 08:58:02
Writing application                      : v20.0.0 ('I Am The Sun') 32-bit
Writing library                          : libebml v1.3.5 + v1.4.8
Cover                                    : Yes
Attachments                              : cover.jpg

Video
ID                                       : 1
Format                                   : HEVC
Format/Info                              : High Efficiency Video Coding
Format profile                           : Main [email protected]@High
Codec ID                                 : V_MPEGH/ISO/HEVC
Duration                                 : 2 h 28 min
Bit rate                                 : 5 814 kb/s
Width                                    : 1 920 pixels
Height                                   : 804 pixels
Display aspect ratio                     : 2.40:1
Frame rate mode                          : Constant
Frame rate                               : 23.976 (24000/1001) FPS
Color space                              : YUV
Chroma subsampling                       : 4:2:0
Bit depth                                : 10 bits
Bits/(Pixel*Frame)                       : 0.157
Stream size                              : 6.04 GiB (90%)
Title                                    : The Da Vinci Code (2006) [RM, TC]
Writing library                          : x265 2.8+74-fd517ae68f93:[Windows][GCC 7.3.0][64 bit] 10bit
Encoding settings                        : cpuid=1049583 / frame-threads=5 / numa-pools=4 / wpp / no-pmode / no-pme / no-psnr / no-ssim / log-level=3 / input-csp=1 / input-res=1920x804 / interlace=0 / total-frames=0 / level-idc=41 / high-tier=1 / uhd-bd=0 / ref=5 / allow-non-conformance / no-repeat-headers / annexb / no-aud / no-hrd / info / hash=0 / no-temporal-layers / open-gop / min-keyint=24 / keyint=240 / gop-lookahead=0 / bframes=8 / b-adapt=2 / b-pyramid / bframe-bias=0 / rc-lookahead=40 / lookahead-slices=5 / scenecut=40 / radl=0 / no-intra-refresh / ctu=64 / min-cu-size=8 / no-rect / no-amp / max-tu-size=32 / tu-inter-depth=1 / tu-intra-depth=1 / limit-tu=0 / rdoq-level=0 / dynamic-rd=0.00 / no-ssim-rd / signhide / no-tskip / nr-intra=0 / nr-inter=0 / no-constrained-intra / strong-intra-smoothing / max-merge=2 / limit-refs=3 / no-limit-modes / me=3 / subme=7 / merange=57 / temporal-mvp / weightp / no-weightb / no-analyze-src-pics / deblock=-3:-3 / no-sao / no-sao-non-deblock / rd=3 / no-early-skip / rskip / no-fast-intra / no-tskip-fast / no-cu-lossless / no-b-intra / no-splitrd-skip / rdpenalty=0 / psy-rd=2.00 / psy-rdoq=0.00 / no-rd-refine / no-lossless / cbqpoffs=0 / crqpoffs=0 / rc=crf / crf=20.0 / qcomp=0.70 / qpstep=4 / stats-write=0 / stats-read=0 / vbv-maxrate=50000 / vbv-bufsize=50000 / vbv-init=0.9 / crf-max=0.0 / crf-min=0.0 / ipratio=1.40 / pbratio=1.30 / aq-mode=1 / aq-strength=1.00 / cutree / zone-count=0 / no-strict-cbr / qg-size=32 / no-rc-grain / qpmax=69 / qpmin=0 / no-const-vbv / sar=1 / overscan=0 / videoformat=5 / range=0 / colorprim=1 / transfer=1 / colormatrix=1 / chromaloc=0 / display-window=0 / max-cll=0,0 / min-luma=0 / max-luma=1023 / log2-max-poc-lsb=8 / vui-timing-info / vui-hrd-info / slices=1 / no-opt-qp-pps / no-opt-ref-list-length-pps / no-multi-pass-opt-rps / scenecut-bias=0.05 / no-opt-cu-delta-qp / no-aq-motion / no-hdr / no-hdr-opt / no-dhdr10-opt / no-idr-recovery-sei / analysis-reuse-level=5 / scale-factor=0 / refine-intra=0 / refine-inter=0 / refine-mv=0 / no-limit-sao / ctu-info=0 / no-lowpass-dct / refine-mv-type=0 / copy-pic=1 / max-ausize-factor=1.0 / no-dynamic-refine / no-single-sei
Language                                 : English
Default                                  : Yes
Forced                                   : No
Color range                              : Limited
Color primaries                          : BT.709
Transfer characteristics                 : BT.709
Matrix coefficients                      : BT.709

Audio #1
ID                                       : 2
Format                                   : AC-3
Format/Info                              : Audio Coding 3
Codec ID                                 : A_AC3
Duration                                 : 2 h 28 min
Bit rate mode                            : Constant
Bit rate                                 : 192 kb/s
Channel(s)                               : 2 channels
Channel positions                        : Front: L R
Sampling rate                            : 48.0 kHz
Frame rate                               : 31.250 FPS (1536 SPF)
Bit depth                                : 16 bits
Compression mode                         : Lossy
Stream size                              : 204 MiB (3%)
Title                                    : БЗ - ICTV
Language                                 : Ukrainian
Service kind                             : Complete Main
Default                                  : Yes
Forced                                   : Yes

Audio #2
ID                                       : 3
Format                                   : AC-3
Format/Info                              : Audio Coding 3
Codec ID                                 : A_AC3
Duration                                 : 2 h 28 min
Bit rate mode                            : Constant
Bit rate                                 : 448 kb/s
Channel(s)                               : 6 channels
Channel positions                        : Front: L C R, Side: L R, LFE
Sampling rate                            : 48.0 kHz
Frame rate                               : 31.250 FPS (1536 SPF)
Bit depth                                : 16 bits
Compression mode                         : Lossy
Stream size                              : 477 MiB (7%)
Title                                    : Оригинал
Language                                 : English
Service kind                             : Complete Main
Default                                  : No
Forced                                   : No

Text
ID                                       : 4
Format                                   : UTF-8
Codec ID                                 : S_TEXT/UTF8
Codec ID/Info                            : UTF-8 Plain Text
Duration                                 : 2 h 18 min
Bit rate                                 : 53 b/s
Count of elements                        : 1655
Stream size                              : 53.7 KiB (0%)
Title                                    : Full
Language                                 : English
Default                                  : Yes
Forced                                   : No

Menu
00:00:00.000                             : :Глава 1
00:12:54.774                             : :Глава 2
00:28:56.359                             : :Глава 3
00:39:59.855                             : :Глава 4
00:41:40.873                             : :Глава 5
00:48:21.607                             : :Глава 6
01:04:42.879                             : :Глава 7
01:13:04.380                             : :Глава 8
01:24:31.357                             : :Глава 9
01:29:25.360                             : :Глава 10
01:36:27.072                             : :Глава 11
01:41:42.096                             : :Глава 12
01:51:43.363                             : :Глава 13
02:00:03.988                             : :Глава 14
02:11:26.420                             : :Глава 15
02:17:03.590                             : :Глава 16
Світлини



2. Ангели і Демони / Янголи та Демони (Театральна версія) / Angels & Demons (Theatrical Cut) (2009) 1080p H.265 Ukr/Eng | Sub Eng
Ангели і Демони / Янголи та Демони [Театральна версія] / Angels & Demons [Theatrical Cut] (2009) 1080p H.265 Ukr/Eng | Sub Eng

Ден Браун. Екранізації / Dan Brown. Ecranisations (2006-2016) 1080p H.265 Ukr/Eng | Sub Eng


Жанр: детектив, трилер
Країна: США, Італія
Кінокомпанія: Columbia Pictures, Imagine Entertainment, Skylark Productions
Режисер: Рон Говард / Ron Howard
Актори: Том Генкс / Tom Hanks, Юен МакҐреґор / Ewan McGregor, Аіліт Зорор / Ayelet Zurer, Стеллан Скарсґард / Stellan Skarsgård, Пьерфранческо Фавіно / Pierfrancesco Favino, Ніколай Лі Каас / Nikolaj Lie Kaas, Армін Мюллер-Шталь / Armin Mueller-Stahl, Туре Ліндгардт / Thure Lindhardt, Девід Паскесі / David Pasquesi, Козімо Фуско / Cosimo Fusco та інші.

Сюжет:
Весь світ завмер в очікуванні звершення найдавнішої церемонії - вибору глави католицької церкви Папи Римського, але в доленосне рішення втручається якась могутня сила - заклятий ворог католицької церкви - таємничий орден Ілюмінатів! Кандидати на священний пост піддаються лютій ритуальній розправі один за іншим. Перед лицем смертельної загрози Ватикан змушений звернутися за допомогою до професора - експерта з релігійної символіки Роберта Ленґдона, який знаходить докази відродження могутнього таємного братства, яке жорстоко винищувало в Середньовіччя. Разом зі своєю напарницею - талановитим вченим Вітторією Вітру - Ленґдон починає власне розслідування, що захоплюють їх в лабіринти замурованих склепів, таємних підземель і покинутих храмів - в найпотаємніше сховище в світі. Містичною стежкою символів вчені просуваються до неймовірної істини, яка дає Ватикану єдину надію на порятунок. Але в шаленому бажанні розквитатися і показати свою перевагу ілюмінати не зупиняться ні перед чим! Настала пора для людства дізнатися правду!

Тривалість: 02:18:37
Якість:
Відео:
кодек: H.265 (HEVC)
розмір кадру: 1920 x 800
бітрейт: 5 730 кб/с
частота кадрів: 23.976 fps
біт піксель: 0.156 BPP (Bits Per Pixel)
бітова глибина: 10 біт
Увага! Перед завантаженням переконайтесь, що ваш пристрій відтворення (та/або ПЗ) підтримує H.265 (HEVC)

Аудіо # 1:
мова: українська
переклад: професійний дубльований
кодек: AC-3 5.1
бітрейт: 640 кб/с

Аудіо # 2:
мова: англійська
переклад: оригінал
кодек: AC-3 5.1
бітрейт: 640 кб/с

Субтитри # 1:
мова: англійська (Full),
тип: програмні (м'які)
формат: *.srt

Субтитри # 2:
мова: англійська (SDH),
тип: програмні (м'які)
формат: *.srt


Info
Код:
General
Unique ID                                : 113200002758839929383906835140386944111 (0x5529870A5B95A2B15F1E306BD4D6F46F)
Complete name                            : D:\Video\Dan Brown. Ecranisations (2006-2016) 1080p H.265 [UKR_ENG]\2. Angels & Demons (2009) 1080p H.265 [UKR_ENG].
Format                                   :
Format version                           : Version 4 / Version 2
File size                                : 6.79 GiB
Duration                                 : 2 h 18 min
Overall bit rate                         : 7 012 kb/s
Movie name                               : Angels & Demons (2009)
Encoded date                             : UTC 2018-12-06 20:45:50
Writing application                      : v20.0.0 ('I Am The Sun') 32-bit
Writing library                          : libebml v1.3.5 + v1.4.8
Cover                                    : Yes
Attachments                              : cover.jpg

Video
ID                                       : 1
Format                                   : HEVC
Format/Info                              : High Efficiency Video Coding
Format profile                           : Main [email protected]@High
Codec ID                                 : V_MPEGH/ISO/HEVC
Duration                                 : 2 h 18 min
Bit rate                                 : 5 729 kb/s
Width                                    : 1 920 pixels
Height                                   : 800 pixels
Display aspect ratio                     : 2.40:1
Frame rate mode                          : Constant
Frame rate                               : 23.976 (24000/1001) FPS
Color space                              : YUV
Chroma subsampling                       : 4:2:0
Bit depth                                : 10 bits
Bits/(Pixel*Frame)                       : 0.156
Stream size                              : 5.55 GiB (82%)
Title                                    : Angels & Demons (2009)
Writing library                          : x265 2.8+74-fd517ae68f93:[Windows][GCC 7.3.0][64 bit] 10bit
Encoding settings                        : cpuid=1049583 / frame-threads=5 / numa-pools=4 / wpp / no-pmode / no-pme / no-psnr / no-ssim / log-level=3 / input-csp=1 / input-res=1920x800 / interlace=0 / total-frames=0 / level-idc=41 / high-tier=1 / uhd-bd=0 / ref=5 / allow-non-conformance / no-repeat-headers / annexb / no-aud / no-hrd / info / hash=0 / no-temporal-layers / open-gop / min-keyint=24 / keyint=240 / gop-lookahead=0 / bframes=8 / b-adapt=2 / b-pyramid / bframe-bias=0 / rc-lookahead=40 / lookahead-slices=5 / scenecut=40 / radl=0 / no-intra-refresh / ctu=64 / min-cu-size=8 / no-rect / no-amp / max-tu-size=32 / tu-inter-depth=1 / tu-intra-depth=1 / limit-tu=0 / rdoq-level=0 / dynamic-rd=0.00 / no-ssim-rd / signhide / no-tskip / nr-intra=0 / nr-inter=0 / no-constrained-intra / strong-intra-smoothing / max-merge=2 / limit-refs=3 / no-limit-modes / me=3 / subme=7 / merange=57 / temporal-mvp / weightp / no-weightb / no-analyze-src-pics / deblock=-3:-3 / no-sao / no-sao-non-deblock / rd=3 / no-early-skip / rskip / no-fast-intra / no-tskip-fast / no-cu-lossless / no-b-intra / no-splitrd-skip / rdpenalty=0 / psy-rd=2.00 / psy-rdoq=0.00 / no-rd-refine / no-lossless / cbqpoffs=0 / crqpoffs=0 / rc=crf / crf=18.0 / qcomp=0.70 / qpstep=4 / stats-write=0 / stats-read=0 / vbv-maxrate=50000 / vbv-bufsize=50000 / vbv-init=0.9 / crf-max=0.0 / crf-min=0.0 / ipratio=1.40 / pbratio=1.30 / aq-mode=1 / aq-strength=1.00 / cutree / zone-count=0 / no-strict-cbr / qg-size=32 / no-rc-grain / qpmax=69 / qpmin=0 / no-const-vbv / sar=1 / overscan=0 / videoformat=5 / range=0 / colorprim=1 / transfer=1 / colormatrix=1 / chromaloc=0 / display-window=0 / max-cll=0,0 / min-luma=0 / max-luma=1023 / log2-max-poc-lsb=8 / vui-timing-info / vui-hrd-info / slices=1 / no-opt-qp-pps / no-opt-ref-list-length-pps / no-multi-pass-opt-rps / scenecut-bias=0.05 / no-opt-cu-delta-qp / no-aq-motion / no-hdr / no-hdr-opt / no-dhdr10-opt / no-idr-recovery-sei / analysis-reuse-level=5 / scale-factor=0 / refine-intra=0 / refine-inter=0 / refine-mv=0 / no-limit-sao / ctu-info=0 / no-lowpass-dct / refine-mv-type=0 / copy-pic=1 / max-ausize-factor=1.0 / no-dynamic-refine / no-single-sei
Language                                 : English
Default                                  : Yes
Forced                                   : No
Color range                              : Limited
Color primaries                          : BT.709
Transfer characteristics                 : BT.709
Matrix coefficients                      : BT.709

Audio #1
ID                                       : 2
Format                                   : AC-3
Format/Info                              : Audio Coding 3
Codec ID                                 : A_AC3
Duration                                 : 2 h 18 min
Bit rate mode                            : Constant
Bit rate                                 : 640 kb/s
Channel(s)                               : 6 channels
Channel positions                        : Front: L C R, Side: L R, LFE
Sampling rate                            : 48.0 kHz
Frame rate                               : 31.250 FPS (1536 SPF)
Bit depth                                : 16 bits
Compression mode                         : Lossy
Stream size                              : 635 MiB (9%)
Title                                    : ПД - Blu-Ray
Language                                 : Ukrainian
Service kind                             : Complete Main
Default                                  : Yes
Forced                                   : Yes

Audio #2
ID                                       : 3
Format                                   : AC-3
Format/Info                              : Audio Coding 3
Codec ID                                 : A_AC3
Duration                                 : 2 h 18 min
Bit rate mode                            : Constant
Bit rate                                 : 640 kb/s
Channel(s)                               : 6 channels
Channel positions                        : Front: L C R, Side: L R, LFE
Sampling rate                            : 48.0 kHz
Frame rate                               : 31.250 FPS (1536 SPF)
Bit depth                                : 16 bits
Compression mode                         : Lossy
Stream size                              : 635 MiB (9%)
Title                                    : Original
Language                                 : English
Service kind                             : Complete Main
Default                                  : No
Forced                                   : No

Text #1
ID                                       : 4
Format                                   : UTF-8
Codec ID                                 : S_TEXT/UTF8
Codec ID/Info                            : UTF-8 Plain Text
Duration                                 : 2 h 7 min
Bit rate                                 : 53 b/s
Count of elements                        : 1337
Stream size                              : 49.9 KiB (0%)
Title                                    : Full
Language                                 : English
Default                                  : Yes
Forced                                   : No

Text #2
ID                                       : 5
Format                                   : UTF-8
Codec ID                                 : S_TEXT/UTF8
Codec ID/Info                            : UTF-8 Plain Text
Duration                                 : 2 h 12 min
Bit rate                                 : 54 b/s
Count of elements                        : 1472
Stream size                              : 53.4 KiB (0%)
Title                                    : SDH
Language                                 : English
Default                                  : No
Forced                                   : No

Menu
00:00:00.000                             : :00:00:00.000
00:09:30.945                             : :00:09:30.945
00:17:33.010                             : :00:17:33.010
00:25:40.998                             : :00:25:40.998
00:32:22.274                             : :00:32:22.274
00:43:36.864                             : :00:43:36.864
00:51:52.609                             : :00:51:52.609
01:01:11.918                             : :01:01:11.918
01:10:47.577                             : :01:10:47.577
01:17:13.963                             : :01:17:13.963
01:26:21.510                             : :01:26:21.510
01:37:39.562                             : :01:37:39.562
01:47:41.455                             : :01:47:41.455
01:58:02.367                             : :01:58:02.367
02:03:03.334                             : :02:03:03.334
02:07:28.140                             : :02:07:28.140
Світлини



3. Інферно / Inferno (2016) 1080p H.265 Ukr/Eng | Sub Ukr/Eng
Інферно / Inferno (2016) 1080p H.265 Ukr/Eng | Sub Ukr/Eng

Ден Браун. Екранізації / Dan Brown. Ecranisations (2006-2016) 1080p H.265 Ukr/Eng | Sub Eng


Жанр: бойовик, трилер, драма, кримінальний, детектив, пригодницький
Країна: США, Угорщина
Кінокомпанія: Columbia Pictures, Sony Pictures Studios, Imagine Entertainment, LStar Capital, Mid Atlantic Films
Режисер: Рон Говард / Ron Howard
Актори: Том Генкс / Tom Hanks, Фелісіті Джонс / Felicity Jones, Бен Фостер / Ben Foster, Іррфан Кхан / Irrfan Khan, Омар Сі / Omar Sy, Сідсе Бабетт Кнудсен / Sidse Babett Knudsen, Ана Улару / Ana Ularu, Іда Дарвіш / Ida Darvish, Ката Сарбо / Kata Sarbo, Аттіла Арпа / Attila Arpa та інші

Сюжет:
Професор релігійної симвології Роберт Ленґдон прибуває до Флоренції, і одразу опиняється в круговерті загадкових подій, котрі можуть привести людство до загибелі. І лише розгадка таємниці, зашифрованої в безсмертній поемі Данте здатна відвернути невідворотнє...

Тривалість: 02:01:35
Якість:
Відео:
кодек: H.265 (HEVC)
розмір кадру: 1920 x 1036
бітрейт: 7 013 кб/с
частота кадрів: 23.976 fps
біт піксель: 0.147 BPP (Bits Per Pixel)
бітова глибина: 10 біт
Увага! Перед завантаженням переконайтесь, що ваш пристрій відтворення (та/або ПЗ) підтримує H.265 (HEVC)

Аудіо # 1:
мова: українська
переклад: професійний дубльований
кодек: AC-3 2.0
бітрейт: 192 кб/с

Аудіо # 2:
мова: англійська
переклад: оригінал
кодек: AC-3 5.1
бітрейт: 448 кб/с

Субтитри # 1:
мова: українська (Forced),
тип: програмні (м'які)
формат: *.srt

Субтитри # 2:
мова: українська (Full),
тип: програмні (м'які)
формат: *.srt

Субтитри # 3:
мова: англійська (Forced),
тип: програмні (м'які)
формат: *.srt

Субтитри # 4:
мова: англійська (Full),
тип: програмні (м'які)
формат: *.srt


Info
Код:
General
Unique ID                                : 288475104534239831534815572952842963462 (0xD90648C18BB331F38E0E04F1A1970A06)
Complete name                            : D:\Video\Dan Brown. Ecranisations (2006-2016) 1080p H.265 [UKR_ENG]\3. Inferno (2016) 1080p H.265 [UKR_ENG].
Format                                   :
Format version                           : Version 4 / Version 2
File size                                : 6.50 GiB
Duration                                 : 2 h 1 min
Overall bit rate                         : 7 656 kb/s
Movie name                               : Inferno (2016)
Encoded date                             : UTC 2018-12-01 22:56:34
Writing application                      : v20.0.0 ('I Am The Sun') 32-bit
Writing library                          : libebml v1.3.5 + v1.4.8
Cover                                    : Yes
Attachments                              : cover

Video
ID                                       : 1
Format                                   : HEVC
Format/Info                              : High Efficiency Video Coding
Format profile                           : Main [email protected]@High
Codec ID                                 : V_MPEGH/ISO/HEVC
Duration                                 : 2 h 1 min
Bit rate                                 : 7 013 kb/s
Width                                    : 1 920 pixels
Height                                   : 1 036 pixels
Display aspect ratio                     : 1.85:1
Frame rate mode                          : Constant
Frame rate                               : 23.976 (24000/1001) FPS
Color space                              : YUV
Chroma subsampling                       : 4:2:0
Bit depth                                : 10 bits
Bits/(Pixel*Frame)                       : 0.147
Stream size                              : 5.96 GiB (92%)
Title                                    : Inferno (2016)
Writing library                          : x265 2.8+74-fd517ae68f93:[Windows][GCC 7.3.0][64 bit] 10bit
Encoding settings                        : cpuid=1049583 / frame-threads=5 / numa-pools=4 / wpp / no-pmode / no-pme / no-psnr / no-ssim / log-level=3 / input-csp=1 / input-res=1920x1036 / interlace=0 / total-frames=0 / level-idc=41 / high-tier=1 / uhd-bd=0 / ref=5 / allow-non-conformance / no-repeat-headers / annexb / no-aud / no-hrd / info / hash=0 / no-temporal-layers / open-gop / min-keyint=24 / keyint=240 / gop-lookahead=0 / bframes=8 / b-adapt=2 / b-pyramid / bframe-bias=0 / rc-lookahead=40 / lookahead-slices=6 / scenecut=40 / radl=0 / no-intra-refresh / ctu=64 / min-cu-size=8 / no-rect / no-amp / max-tu-size=32 / tu-inter-depth=1 / tu-intra-depth=1 / limit-tu=0 / rdoq-level=0 / dynamic-rd=0.00 / no-ssim-rd / signhide / no-tskip / nr-intra=0 / nr-inter=0 / no-constrained-intra / strong-intra-smoothing / max-merge=2 / limit-refs=3 / no-limit-modes / me=3 / subme=7 / merange=57 / temporal-mvp / weightp / no-weightb / no-analyze-src-pics / deblock=-3:-3 / no-sao / no-sao-non-deblock / rd=3 / no-early-skip / rskip / no-fast-intra / no-tskip-fast / no-cu-lossless / no-b-intra / no-splitrd-skip / rdpenalty=0 / psy-rd=2.00 / psy-rdoq=0.00 / no-rd-refine / no-lossless / cbqpoffs=0 / crqpoffs=0 / rc=crf / crf=20.0 / qcomp=0.70 / qpstep=4 / stats-write=0 / stats-read=0 / vbv-maxrate=50000 / vbv-bufsize=50000 / vbv-init=0.9 / crf-max=0.0 / crf-min=0.0 / ipratio=1.40 / pbratio=1.30 / aq-mode=1 / aq-strength=1.00 / cutree / zone-count=0 / no-strict-cbr / qg-size=32 / no-rc-grain / qpmax=69 / qpmin=0 / no-const-vbv / sar=1 / overscan=0 / videoformat=5 / range=0 / colorprim=1 / transfer=1 / colormatrix=1 / chromaloc=0 / display-window=0 / max-cll=0,0 / min-luma=0 / max-luma=1023 / log2-max-poc-lsb=8 / vui-timing-info / vui-hrd-info / slices=1 / no-opt-qp-pps / no-opt-ref-list-length-pps / no-multi-pass-opt-rps / scenecut-bias=0.05 / no-opt-cu-delta-qp / no-aq-motion / no-hdr / no-hdr-opt / no-dhdr10-opt / no-idr-recovery-sei / analysis-reuse-level=5 / scale-factor=0 / refine-intra=0 / refine-inter=0 / refine-mv=0 / no-limit-sao / ctu-info=0 / no-lowpass-dct / refine-mv-type=0 / copy-pic=1 / max-ausize-factor=1.0 / no-dynamic-refine / no-single-sei
Language                                 : English
Default                                  : Yes
Forced                                   : No
Color range                              : Limited
Color primaries                          : BT.709
Transfer characteristics                 : BT.709
Matrix coefficients                      : BT.709

Audio #1
ID                                       : 2
Format                                   : AC-3
Format/Info                              : Audio Coding 3
Codec ID                                 : A_AC3
Duration                                 : 2 h 1 min
Bit rate mode                            : Constant
Bit rate                                 : 192 kb/s
Channel(s)                               : 2 channels
Channel positions                        : Front: L R
Sampling rate                            : 48.0 kHz
Frame rate                               : 31.250 FPS (1536 SPF)
Bit depth                                : 16 bits
Compression mode                         : Lossy
Stream size                              : 167 MiB (3%)
Title                                    : ПД - iTunes
Language                                 : Ukrainian
Service kind                             : Complete Main
Default                                  : Yes
Forced                                   : Yes

Audio #2
ID                                       : 3
Format                                   : AC-3
Format/Info                              : Audio Coding 3
Codec ID                                 : A_AC3
Duration                                 : 2 h 1 min
Bit rate mode                            : Constant
Bit rate                                 : 448 kb/s
Channel(s)                               : 6 channels
Channel positions                        : Front: L C R, Side: L R, LFE
Sampling rate                            : 48.0 kHz
Frame rate                               : 31.250 FPS (1536 SPF)
Bit depth                                : 16 bits
Compression mode                         : Lossy
Stream size                              : 390 MiB (6%)
Title                                    : Original
Language                                 : English
Service kind                             : Complete Main
Default                                  : No
Forced                                   : No

Text #1
ID                                       : 4
Format                                   : UTF-8
Codec ID                                 : S_TEXT/UTF8
Codec ID/Info                            : UTF-8 Plain Text
Duration                                 : 1 h 50 min
Bit rate                                 : 3 b/s
Count of elements                        : 47
Stream size                              : 2.53 KiB (0%)
Title                                    : Forced
Language                                 : Ukrainian
Default                                  : Yes
Forced                                   : Yes

Text #2
ID                                       : 5
Format                                   : UTF-8
Codec ID                                 : S_TEXT/UTF8
Codec ID/Info                            : UTF-8 Plain Text
Duration                                 : 1 h 55 min
Bit rate                                 : 89 b/s
Count of elements                        : 1398
Stream size                              : 75.0 KiB (0%)
Title                                    : Full
Language                                 : Ukrainian
Default                                  : No
Forced                                   : No

Text #3
ID                                       : 6
Format                                   : UTF-8
Codec ID                                 : S_TEXT/UTF8
Codec ID/Info                            : UTF-8 Plain Text
Duration                                 : 57 min 24 s
Bit rate                                 : 2 b/s
Count of elements                        : 29
Stream size                              : 1.01 KiB (0%)
Title                                    : Forced
Language                                 : English
Default                                  : No
Forced                                   : No

Text #4
ID                                       : 7
Format                                   : UTF-8
Codec ID                                 : S_TEXT/UTF8
Codec ID/Info                            : UTF-8 Plain Text
Duration                                 : 1 h 55 min
Bit rate                                 : 55 b/s
Count of elements                        : 1360
Stream size                              : 46.5 KiB (0%)
Title                                    : Full
Language                                 : English
Default                                  : No
Forced                                   : No

Menu
00:00:00.000                             : en:00:00:00.000
00:04:13.545                             : en:00:04:13.545
00:12:32.919                             : en:00:12:32.919
00:23:43.005                             : en:00:23:43.005
00:36:03.161                             : en:00:36:03.161
00:51:11.652                             : en:00:51:11.652
00:59:16.595                             : en:00:59:16.595
01:01:42.908                             : en:01:01:42.908
01:07:42.517                             : en:01:07:42.517
01:13:25.234                             : en:01:13:25.234
01:20:02.256                             : en:01:20:02.256
01:24:37.364                             : en:01:24:37.364
01:31:25.271                             : en:01:31:25.271
01:35:42.111                             : en:01:35:42.111
01:40:51.128                             : en:01:40:51.128
01:52:27.908                             : en:01:52:27.908
Світлини




Джерело:
Особиста оцінка: 10 - без зайвих вагань рекомендую всім!


>>> Усі мої релізи <<<



Бронзовий реліз (на рейтинг впливає 75% завантаженого)
 Трекер:    Зареєстрований   

Завантажити / скачати фільм українською



відео для новачків



 Зареєстрований:   2018-12-07 12:31
 Розмір:   20 GB 
 Оцінка фільму:   9.2/10 (Голосів: 11)
   
Ваш часовий пояс: GMT + 2 Години

Нова тема   Відповісти