У топці / Boiler Room (2000) 1080p H.265 Ukr/Eng | Sub Eng

Нові коментарі

Нова тема   Відповісти
Автор Повідомлення
Anonymous 







2018-12-06 22:13  
У топці / Boiler Room (2000) 1080p H.265 Ukr/Eng | Sub Eng

У топці / Boiler Room (2000) 1080p H.265 Ukr/Eng | Sub Eng


Жанр: драма, кримінальний, трилер
Країна: США
Режисер: Бен Янгер / Ben Younger
Актори: Джованні Рібізі / Giovanni Ribisi, Він Дизель / Vin Diesel, Ніа Лонг / Nia Long, Ніккі Кетт / Nicky Katt, Бен Аффлек / Ben Affleck, Джейми Кеннеді / Jamie Kennedy та інші

Сюжет:
Чи цікавилися ви коли-небудь питанням, чому деякі люди виграють у лотерею мільйони доларів, а ви ні? Чому ви заробляєте 4 тис. доларів на рік, а секретарка з «Майкрософт» 140 тис. доларів? Чому якийсь бовдур роз'їжджає на новенькому «Феррарі», а ви працею накопичили на уживаний «Вольво»? Невже ці люди розумніші або кращі за вас?!?

Ці ж запитання ставив собі і Сет Девіс, молодий шулер, який відкрив у своїй квартирі невелике підпільне казино. Доля була до нього прихильною і один з клієнтів, неймовірно багатий молодий чоловік, пропонує йому працювати на якусь брокерську фірму, де місячна зарплата перевищує річний дохід від його казино. Сет щасливий, його мрія здійснюється, гроші ллються рікою, але незабаром він починає розуміти, що за все в житті доводиться розплачуватися ...


Тривалість: 01:59:29
Якість: (Власний Rip)
Відео:
кодек: H.265 (HEVC)
розмір кадру: 1920 x 1080
бітрейт: 9853 кб/с
бітова глибина: 10 біт
Увага! Перед завантаженням переконайтесь, що ваш пристрій відтворення (та/або ПЗ) підтримує H.265 (HEVC)

Аудіо # 1:
мова: українська
переклад: багатоголосий закадровий
кодек: 5.1
бітрейт: 384 кб/с

Аудіо # 2:
мова: англійська
переклад: оригінал
кодек: 5.1
бітрейт: 640 кб/с

Субтитри # 1:
мова: українська (Forced),
тип: програмні (м'які)
формат: *.srt

Субтитри # 2:
мова: англійська (Full),
тип: програмні (м'які)
формат: *.srt


Info
Код:
General
Unique ID                                : 3623576704700803699085248295419988099 (0x2B9E01FFD934AD2E3BD87EB18234883)
Complete name                            : D:\Video\Boiler Room (2000) 1080p H.265 [UKR_ENG].
Format                                   :
Format version                           : Version 4 / Version 2
File size                                : 9.08 GiB
Duration                                 : 1 h 59 min
Overall bit rate                         : 10.9 Mb/s
Movie name                               : Boiler Room (2000) - Encoded by -Star-Lord-
Encoded date                             : UTC 2018-12-04 08:22:46
Writing application                      : v20.0.0 ('I Am The Sun') 32-bit
Writing library                          : libebml v1.3.5 + v1.4.8
Cover                                    : Yes
Attachments                              : Cover.jpg

Video
ID                                       : 1
Format                                   : HEVC
Format/Info                              : High Efficiency Video Coding
Format profile                           : Main [email protected]@High
Codec ID                                 : V_MPEGH/ISO/HEVC
Duration                                 : 1 h 59 min
Bit rate                                 : 9 852 kb/s
Width                                    : 1 920 pixels
Height                                   : 1 080 pixels
Display aspect ratio                     : 16:9
Frame rate mode                          : Constant
Frame rate                               : 23.976 (24000/1001) FPS
Color space                              : YUV
Chroma subsampling                       : 4:2:0
Bit depth                                : 10 bits
Bits/(Pixel*Frame)                       : 0.198
Stream size                              : 8.22 GiB (91%)
Title                                    : Boiler Room (2000) - Encoded by -Star-Lord-
Writing library                          : x265 2.8+74-fd517ae68f93:[Windows][GCC 7.3.0][64 bit] 10bit
Encoding settings                        : cpuid=1111039 / frame-threads=5 / numa-pools=4 / wpp / no-pmode / no-pme / no-psnr / no-ssim / log-level=3 / input-csp=1 / input-res=1920x1080 / interlace=0 / total-frames=0 / level-idc=51 / high-tier=1 / uhd-bd=0 / ref=5 / allow-non-conformance / no-repeat-headers / annexb / no-aud / no-hrd / info / hash=0 / no-temporal-layers / open-gop / min-keyint=23 / keyint=250 / gop-lookahead=0 / bframes=8 / b-adapt=2 / b-pyramid / bframe-bias=0 / rc-lookahead=60 / lookahead-slices=6 / scenecut=40 / radl=0 / no-intra-refresh / ctu=64 / min-cu-size=8 / no-rect / no-amp / max-tu-size=32 / tu-inter-depth=2 / tu-intra-depth=2 / limit-tu=0 / rdoq-level=1 / dynamic-rd=0.00 / no-ssim-rd / signhide / no-tskip / nr-intra=0 / nr-inter=0 / no-constrained-intra / no-strong-intra-smoothing / max-merge=2 / limit-refs=3 / no-limit-modes / me=3 / subme=7 / merange=57 / temporal-mvp / weightp / weightb / no-analyze-src-pics / deblock=-3:-3 / no-sao / no-sao-non-deblock / rd=3 / no-early-skip / rskip / no-fast-intra / no-tskip-fast / no-cu-lossless / no-b-intra / no-splitrd-skip / rdpenalty=0 / psy-rd=2.00 / psy-rdoq=3.00 / no-rd-refine / no-lossless / cbqpoffs=0 / crqpoffs=0 / rc=crf / crf=21.0 / qcomp=0.65 / qpstep=1 / stats-write=0 / stats-read=0 / vbv-maxrate=50000 / vbv-bufsize=50000 / vbv-init=0.9 / crf-max=0.0 / crf-min=0.0 / ipratio=1.40 / pbratio=1.30 / aq-mode=1 / aq-strength=1.00 / cutree / zone-count=0 / no-strict-cbr / qg-size=32 / no-rc-grain / qpmax=69 / qpmin=0 / no-const-vbv / sar=1 / overscan=0 / videoformat=5 / range=0 / colorprim=1 / transfer=1 / colormatrix=1 / chromaloc=0 / display-window=0 / max-cll=0,0 / min-luma=0 / max-luma=1023 / log2-max-poc-lsb=8 / vui-timing-info / vui-hrd-info / slices=1 / no-opt-qp-pps / no-opt-ref-list-length-pps / no-multi-pass-opt-rps / scenecut-bias=0.05 / no-opt-cu-delta-qp / no-aq-motion / no-hdr / no-hdr-opt / no-dhdr10-opt / no-idr-recovery-sei / analysis-reuse-level=5 / scale-factor=0 / refine-intra=0 / refine-inter=0 / refine-mv=0 / no-limit-sao / ctu-info=0 / no-lowpass-dct / refine-mv-type=0 / copy-pic=1 / max-ausize-factor=1.0 / no-dynamic-refine / no-single-sei
Default                                  : Yes
Forced                                   : No
Color range                              : Limited
Color primaries                          : BT.709
Transfer characteristics                 : BT.709
Matrix coefficients                      : BT.709

Audio #1
ID                                       : 2
Format                                   : AC-3
Format/Info                              : Audio Coding 3
Codec ID                                 : A_AC3
Duration                                 : 1 h 59 min
Bit rate mode                            : Constant
Bit rate                                 : 384 kb/s
Channel(s)                               : 6 channels
Channel positions                        : Front: L C R, Side: L R, LFE
Sampling rate                            : 48.0 kHz
Frame rate                               : 31.250 FPS (1536 SPF)
Bit depth                                : 16 bits
Compression mode                         : Lossy
Stream size                              : 328 MiB (4%)
Title                                    : БЗ - Inter
Language                                 : Ukrainian
Service kind                             : Complete Main
Default                                  : Yes
Forced                                   : Yes

Audio #2
ID                                       : 3
Format                                   : AC-3
Format/Info                              : Audio Coding 3
Codec ID                                 : A_AC3
Duration                                 : 1 h 59 min
Bit rate mode                            : Constant
Bit rate                                 : 640 kb/s
Channel(s)                               : 6 channels
Channel positions                        : Front: L C R, Side: L R, LFE
Sampling rate                            : 48.0 kHz
Frame rate                               : 31.250 FPS (1536 SPF)
Bit depth                                : 16 bits
Compression mode                         : Lossy
Stream size                              : 547 MiB (6%)
Title                                    : Original
Language                                 : English
Service kind                             : Complete Main
Default                                  : No
Forced                                   : No

Text #1
ID                                       : 4
Format                                   : UTF-8
Codec ID                                 : S_TEXT/UTF8
Codec ID/Info                            : UTF-8 Plain Text
Duration                                 : 5 min 44 s
Bit rate                                 : 157 b/s
Count of elements                        : 85
Stream size                              : 6.60 KiB (0%)
Title                                    : Forced
Language                                 : Ukrainian
Default                                  : Yes
Forced                                   : Yes

Text #2
ID                                       : 5
Format                                   : UTF-8
Codec ID                                 : S_TEXT/UTF8
Codec ID/Info                            : UTF-8 Plain Text
Duration                                 : 1 h 52 min
Bit rate                                 : 95 b/s
Count of elements                        : 1755
Stream size                              : 79.1 KiB (0%)
Title                                    : Full
Language                                 : English
Default                                  : No
Forced                                   : No

Menu
00:00:00.000                             : en:Chapter 1
00:05:08.224                             : en:Chapter 2
00:11:42.952                             : en:Chapter 3
00:15:40.522                             : en:Chapter 4
00:22:40.984                             : en:Chapter 5
00:28:42.762                             : en:Chapter 6
00:33:38.182                             : en:Chapter 7
00:42:07.024                             : en:Chapter 8
00:45:40.529                             : en:Chapter 9
00:52:12.295                             : en:Chapter 10
00:57:10.969                             : en:Chapter 11
01:02:01.592                             : en:Chapter 12
01:08:09.126                             : en:Chapter 13
01:13:42.876                             : en:Chapter 14
01:20:50.220                             : en:Chapter 15
01:27:12.393                             : en:Chapter 16
01:31:55.801                             : en:Chapter 17
01:37:14.578                             : en:Chapter 18
01:43:55.729                             : en:Chapter 19
01:49:10.210                             : en:Chapter 20
01:53:51.074                             : en:Chapter 21
01:59:29.328                             : en:Chapter 22
Світлини




Джерело:
Особиста оцінка: 0 - не дивився


>>> Усі мої релізи <<<



Срібний реліз (на рейтинг впливає 50% завантаженого)
 Трекер:    Зареєстрований   

Завантажити / скачати фільм українською



відео для новачків



 Зареєстрований:   2018-12-06 22:13
 Розмір:   9.08 GB 
 Оцінка фільму:   10/10 (Голосів: 3)
   
Інші релізи
   У топці / Boiler Room (2000) 720p Ukr/Eng | Sub Eng staf777  2 / 0   5.41 GB   2019-02-08 11:18 
   У топці / Boiler Room (2000) AVC Ukr/Eng | Sub Eng staf777  5 / 0   2.96 GB   2018-09-10 08:54 
   У топці / Boiler Room (2000) Ukr/Eng | Sub Eng Neo777  2 / 0   2.29 GB   2011-05-24 20:57 
Ваш часовий пояс: GMT + 2 Години

Нова тема   Відповісти