Лондонські канікули / A Royal Night Out (2015) AVC Ukr/Eng | Sub Eng

Нові коментарі

Нова тема   Відповісти
Автор Повідомлення
staf777 
Відео Гуртом - підтримка та поширення
Відео Гуртом - підтримка та поширення


З нами з: 16.11.16
Востаннє: 22.04.19
Повідомлень: 2281

2018-12-06 10:51  
Лондонські канікули / A Royal Night Out (2015) AVC Ukr/Eng | Sub Eng

Лондонські канікули / A Royal Night Out (2015) AVC Ukr/Eng | Sub Eng


Жанр: драма, мелодрама, комедія
Країна: Велика Британія



Кінокомпанія: Ecosse Films, Filmgate Films
Режисер: Джуліан Джаррольд
Актори: Сара Гадон, Джек Рейнор, Емілі Уотсон, Руперт Еверетт

Сюжет:
Нарешті Друга світова війна закінчилася і жителі Британії вийшли на вулиці, щоб відсвяткувати цей великий день в історії. Побути між звичайними людьми захотілося і принцесам Маргарет і Елізабет. Адже довгі роки сестри були під наглядом. Більше того - їм практично не дозволяли залишати територію палацу.


Тривалість: 01:37:09
Якість: AVC (джерело: Blu-ray Disc - BLUEBIRD)
Відео:
кодек:
розмір кадру: 1024x428
бітрейт: 2550 кб/с

Аудіо # 1:
мова: українська
переклад: багатоголосий закадровий
кодек: 2.0
бітрейт: 192 кб/с

Аудіо # 2:
мова: англійська
переклад: оригінал
кодек: 5.1
бітрейт: 384 кб/с

Субтитри:
мова: англійська
тип: пререндерні
формат: *.pgs
MI
General
Unique ID : 194818258580214009553712464290756198478 (0x9290A1BD131F906776A203538650804E)
Complete name : N:\A Royal Night Out (2015) AVC [Ukr] [Eng] [Sub-Eng] [Hurtom].
Format :
Format version : Version 4 / Version 2
File size : 2.11 GiB
Duration : 1 h 37 min
Overall bit rate : 3 113 kb/s
Movie name : A Royal Night Out (2015) AVC [Ukr] [Eng] [Sub-Eng] [Hurtom]
Encoded date : UTC 2018-12-06 08:40:16
Writing application : v24.0.0 ('Beyond The Pale') 64-bit
Writing library : libebml v1.3.6 + v1.4.9
Cover : Yes
Attachments : cover.jpg

Video
ID : 1
Format : AVC
Format/Info : Advanced Video Codec
Format profile : [email protected]
Format settings : CABAC / 8 Ref Frames
Format settings, CABAC : Yes
Format settings, ReFrames : 8 frames
Codec ID : V_MPEG4/ISO/AVC
Duration : 1 h 37 min
Bit rate : 2 550 kb/s
Width : 1 024 pixels
Height : 428 pixels
Display aspect ratio : 2.40:1
Frame rate mode : Constant
Frame rate : 23.976 (24000/1001) FPS
Color space : YUV
Chroma subsampling : 4:2:0
Bit depth : 8 bits
Scan type : Progressive
Bits/(Pixel*Frame) : 0.243
Stream size : 1.72 GiB (81%)
Writing library : core 142 r2431 ac76440
Encoding settings : cabac=1 / ref=8 / deblock=1:-3:-3 / analyse=0x3:0x133 / me=umh / subme=9 / psy=1 / psy_rd=1.00:0.10 / mixed_ref=1 / me_range=48 / chroma_me=1 / trellis=2 / 8x8dct=1 / cqm=0 / deadzone=21,11 / fast_pskip=0 / chroma_qp_offset=-3 / threads=4 / lookahead_threads=1 / sliced_threads=0 / nr=0 / decimate=1 / interlaced=0 / bluray_compat=0 / constrained_intra=0 / bframes=16 / b_pyramid=2 / b_adapt=1 / b_bias=0 / direct=3 / weightb=1 / open_gop=0 / weightp=2 / keyint=240 / keyint_min=23 / scenecut=40 / intra_refresh=0 / rc_lookahead=40 / rc=2pass / mbtree=1 / bitrate=2550 / ratetol=1.0 / qcomp=0.60 / qpmin=0 / qpmax=69 / qpstep=4 / cplxblur=20.0 / qblur=0.5 / vbv_maxrate=62500 / vbv_bufsize=78125 / nal_hrd=none / filler=0 / ip_ratio=1.40 / aq=1:1.00
Default : Yes
Forced : No

Audio #1
ID : 2
Format : AC-3
Format/Info : Audio Coding 3
Codec ID : A_AC3
Duration : 1 h 37 min
Bit rate mode : Constant
Bit rate : 192 kb/s
Channel(s) : 2 channels
Channel positions : Front: L R
Sampling rate : 48.0 kHz
Frame rate : 31.250 FPS (1536 SPF)
Bit depth : 16 bits
Compression mode : Lossy
Stream size : 133 MiB (6%)
Title : [Ukr-Mvo-Cine]
Language : Ukrainian
Service kind : Complete Main
Default : Yes
Forced : Yes

Audio #2
ID : 3
Format : AC-3
Format/Info : Audio Coding 3
Codec ID : A_AC3
Duration : 1 h 37 min
Bit rate mode : Constant
Bit rate : 384 kb/s
Channel(s) : 6 channels
Channel positions : Front: L C R, Side: L R, LFE
Sampling rate : 48.0 kHz
Frame rate : 31.250 FPS (1536 SPF)
Bit depth : 16 bits
Compression mode : Lossy
Stream size : 267 MiB (12%)
Language : English
Service kind : Complete Main
Default : No
Forced : No

Text
ID : 4
Format : PGS
Muxing mode : zlib
Codec ID : S_HDMV/PGS
Codec ID/Info : Picture based subtitle format used on BDs/HD-DVDs
Duration : 1 h 31 min
Bit rate : 29.1 kb/s
Count of elements : 3076
Stream size : 18.9 MiB (1%)
Language : English
Default : No
Forced : No





Запис: Sando7
Зведення: drop_plz
Джерело: &
Особиста оцінка: 0 - не дивився
ЗАЛИШАЙТЕСЬ ЯКОМОГА ДОВШЕ НА РОЗДАЧІ!

СКАЧАВ САМ - ДАЙ СКАЧАТИ ІНШИМ



 Трекер:    Зареєстрований   

Завантажити / скачати фільм українською



відео для новачків



 Зареєстрований:   2018-12-06 11:57
 Розмір:   2.11 GB 
 Оцінка фільму:   8.5/10 (Голосів: 8)
   
Інші релізи
bot 
робот


З нами з: 30.09.07
Востаннє: 26.05.05
Повідомлень: 21230

2018-12-06 10:52  
Тему перенесено з Фільми до форуму Анонси релізів


staf777

bot 
робот


З нами з: 30.09.07
Востаннє: 26.05.05
Повідомлень: 21230

2018-12-06 11:56  
Тему перенесено з Анонси релізів до форуму Фільми


staf777

Yarema 
Частий відвідувач


З нами з: 31.08.09
Востаннє: 21.04.19
Повідомлень: 37

2018-12-06 14:57  
Бліда копія "Римських канікул". Дивився лише тому, що хотілося порівняти ці два фільми. Звиайно, "Римські канікули" - то шедевр, його можна дивится безмежну кількість разів. Тим, хто не бачив фільм з неперевершеною Одрі Гепберн, (думаю, це переважно молодь) раджу спочатку переглянути "Лондонські канікули" (A Royal Night Out). Тоді ви, можливо, отримаєте задоволення від обох стрічок.

Звиайно, це два різних фільми. У них і назви різні. Це ми за схожістю ідеї з "Римськими канікулами": вихід у "світ", якщо можна так сказати, королівської родини й зближення з народом охрестили його як "Лондонські канікули". Ідея не нова і досить поширена в сінематогрофі. Тому дивіться, порінюйте й самі робіть висновки.

ЖSmit Jon 
Новенький


З нами з: 27.09.17
Востаннє: 17.04.19
Повідомлень: 7

2018-12-07 20:40  
bot
Звідки такий дивний переклад назви ? Вона немає нічого спільного з фільмом.

Ваш часовий пояс: GMT + 2 Години

Нова тема   Відповісти