Законослухняний громадянин / Law Abiding Citizen (2009) UHD Remux 2160p 4K HDR H.265 Ukr/Eng | Sub Eng

Нові коментарі

Нова тема   Відповісти
Автор Повідомлення
Documentalist 
Попереджень: 1
Попереджень: 1 


З нами з: 04.06.17
Востаннє: 23.04.19
Повідомлень: 59

2018-12-06 06:53  
Законослухняний громадянин / Law Abiding Citizen (2009) UHD Remux 2160p 4K HDR H.265 Ukr/Eng | Sub Eng

Законослухняний громадянин / Law Abiding Citizen (2009) UHD Remux 2160p 4K HDR H.265 Ukr/Eng | Sub Eng


Жанр: трилер, драма, кримінальний
Країна: США



Кінокомпанія: Film Department, The, Gerard Butler Alan Siegel Entertainment, Warp Films, Evil Twins (I)
Режисер: Ф. Гері Грей
Актори: Джерард Батлер / Gerard Butler, Джеймі Фокс / Jamie Foxx, Колм Міні / Colm Meaney, Брюс МакГілл / Bruce McGill, Леслі Бібб / Leslie Bibb, Майкл Ірбі / Michael Irby, Грегори Ітцін / Gregory Itzin, Реджина Холл / Regina Hall, Емеральд-Енжел Янг / Emerald-Angel Young, Крістіан Столте / Christian Stolte та інші

Сюжет:
Законослухняний мешканець Філадельфії Клайд Шелтон (Джерард Батлер) втрачає сім'ю внаслідок бандитського нападу. Але коли злочинці опинилися в руках правосуддя, з'ясувалося, що юридичній Системі зручніше піти на співпрацю з одним із бандитів, щоб дати вищу міру покарання іншому.

Помічник окружного прокурора Нік Райс (Джеймі Фокс) йде на цю співпрацю зі злочинцем всупереч протестам обуреного Шелтона, який свято вірує у бездоганність Закону. Але його правами знехтували. І тоді невідомий месник починає творити власну розправу над вбивцями. Нік Райс достатньо швидко знаходить його. Це. Клайд Шелтон. Райсу здається, що йому неважко добитися визнання від роздавленого сімейною трагедією Клайда.

Яке ж здивування всіх працівників Системи, коли вони виявляють, що навіть запроторена у в'язницю, ця людина здатна на найжорстокішу і витонченішу помсту. Більш того, вони виявилися абсолютно безсилі перед геніальною грою і смертоносними ударами ізольованого в одиночці Шелтона! Законослухняний громадянин почав безжальну війну проти Системи. І справа зовсім не в помсті...


Тривалість: 01:48:29
Якість: 4K UltraHD Remux 2160p
Відео:
кодек: H.265 (HEVC)
розмір кадру: 3840x2160
бітрейт: 64.3 Мб/с
бітова глибина: 10 біт
кольоровий простір: BT.2020 (HDR)

Аудіо:
мова: українська
переклад: Багатоголосий закадровий
кодек: 5.1
бітрейт: 384 кб/с

Аудіо: # 2
мова: англійська
переклад: оригінал
кодек: TrueHD+Atmos / TrueHD 7.1
бітрейт: 4186 Мб/с

Субтитри:
мова: англійська
тип: програмні (м'які)
формат: *.srt
Info
Format :
Format version : Version 4
File size : 52.6 GiB
Duration : 1 h 49 min
Overall bit rate mode : Variable
Overall bit rate : 68.9 Mb/s
Movie name : Законослухняний громадянин
Encoded date : UTC 2018-11-13 21:36:53
Writing application : v7.8.0 ('River Man') 32bit built on Apr 3 2015 12:11:22
Writing library : libebml v1.3.1 + v1.4.2
Cover : Yes
Attachments : cover.jpg

Video
ID : 1
Format : HEVC
Format/Info : High Efficiency Video Coding
Commercial name : HDR10
Format profile : Main [email protected]@High
Codec ID : V_MPEGH/ISO/HEVC
Duration : 1 h 49 min
Bit rate : 64.3 Mb/s
Width : 3 840 pixels
Height : 2 160 pixels
Display aspect ratio : 16:9
Frame rate mode : Constant
Frame rate : 23.976 (24000/1001) FPS
Color space : YUV
Chroma subsampling : 4:2:0 (Type 2)
Bit depth : 10 bits
Bits/(Pixel*Frame) : 0.323
Stream size : 49.0 GiB (93%)
Title : Законослухняний громадянин
Language : Ukrainian
Default : Yes
Forced : No
Color range : Limited
Color primaries : BT.2020
Transfer characteristics : PQ
Matrix coefficients : BT.2020 non-constant
Mastering display color pri : Display P3
Mastering display luminance : min: 0.0001 cd/m2, max: 1000 cd/m2
Maximum Content Light Level : 1000 cd/m2
Maximum Frame-Average Light : 313 cd/m2

Audio #1
ID : 2
Format : AC-3
Format/Info : Audio Coding 3
Commercial name : Dolby Digital
Codec ID : A_AC3
Duration : 1 h 48 min
Bit rate mode : Constant
Bit rate : 384 kb/s
Channel(s) : 6 channels
Channel layout : L R C LFE Ls Rs
Sampling rate : 48.0 kHz
Frame rate : 31.250 FPS (1536 SPF)
Bit depth : 16 bits
Compression mode : Lossy
Stream size : 298 MiB (1%)
Title : Багатоголосий закадровий
Language : Ukrainian
Service kind : Complete Main
Default : Yes
Forced : Yes

Audio #2
ID : 3
Format : MLP FBA 16-ch
Format/Info : Meridian Lossless Packing FBA with 16-channel presentation
Commercial name : Dolby TrueHD with Dolby Atmos
Codec ID : A_TRUEHD
Duration : 1 h 49 min
Bit rate mode : Variable
Bit rate : 4 186 kb/s
Maximum bit rate : 7 701 kb/s
Channel(s) : 8 channels
Channel layout : L R C LFE Ls Rs Lb Rb
Sampling rate : 48.0 kHz
Frame rate : 1 200.000 FPS (40 SPF)
Compression mode : Lossless
Stream size : 3.20 GiB (6%)
Title : Орiгiнал
Language : English
Default : No
Forced : No
Number of dynamic objects : 15
Bed channel count : 1 channel
Bed channel configuration : LFE

Text
ID : 4
Format : UTF-8
Codec ID : S_TEXT/UTF8
Codec ID/Info : UTF-8 Plain Text
Duration : 1 h 37 min
Bit rate : 59 b/s
Count of elements : 1261
Stream size : 42.7 KiB (0%)
Title : Full
Language : English
Default : No
Forced : No

Menu
00:00:00.000 : en:Home Invasion
00:03:33.422 : en:What You Can Prove in Court
00:10:50.358 : en:Lethal Injection
00:18:21.976 : en:You Can't Fight Fate
00:26:36.553 : en:Taken Into Custody
00:37:16.359 : en:Make the Deal
00:40:43.358 : en:Contempt of Court
00:47:08.367 : en:Steak with All the Trimmings
00:55:08.180 : en:Born Tactician
01:02:50.934 : en:This Broken Thing
01:11:49.263 : en:It's Gonna Be Biblical
01:16:25.873 : en:City Under Siege
01:23:52.903 : en:Subterranean Passage
01:28:44.694 : en:Center of Gravity
01:33:57.590 : en:I Don't Make Deals with Murderers
01:41:30.418 : en:End Credits
Скріншоти
Перегляд 4K HDR-контенту на ПК, керівництво з експлуатації

Для перегляду HDR-контенту необхідний телевізор з підтримкою HDR. Просто запишіть на usb-накопичувач викачане відео і встановіть його в ваш ТВ. На звичайних дисплеях зображення буде виглядати неконтрастним і знебарвленим.

Вирішення цієї проблеми, зараз можливо на PC під ОС Windows, використовуючи плеєр, який підтримує висновок зображення через рендер madvr (http://madvr.com), який може виконувати програмну конверсію, у кольоровий простір і гаму REC.709.

Ми рекомендуємо Media Player Classic Home Cinema.

Після встановлення рекомендованих плеєрів, необхідно окремо встановити madvr.
Для цього скачайте з сайту архів, розпакуйте його в зручне місце і запустіть install.bat від облікового запису адміністратора.
Після установки, папку з вмістом не видаляти!
Якщо папку необхідно перенести в інше місце, то після перенесення необхідно знову запустити install.bat.
Для того, щоб зображення виводилося за допомогою madvr, його необхідно вибрати в налаштуваннях плеєра:
Особиста оцінка: 10 - без зайвих вагань рекомендую всім!


Золотий реліз (завантажене не впливає на рейтинг)
 Трекер:    Зареєстрований   

Завантажити / скачати фільм українською



відео для новачків



 Зареєстрований:   2018-12-06 06:53
 Розмір:   52.59 GB 
 Оцінка фільму:   9.9/10 (Голосів: 7)
   
Інші релізи
   Законослухняний громадянин (Режисерська версія) / Law Abiding Citizen [Unrated Director's Cut] (2009) AVC Ukr/Eng | Sub Eng staf777  6 / 0   2.69 GB   2018-10-28 11:43 
   Законослухняний громадянин [Режисерська версія] / Law Abiding Citizen [Unrated Director's Cut] (2009) Remux 1080p Ukr/Eng | Sub Eng staf777  4 / 0   26.25 GB   2018-10-26 14:31 
   Законослухняний громадянин [Режисерська версія] / Law Abiding Citizen [Unrated Director's Cut] (2009) 720p Ukr/Eng | Sub Eng igor911  5 / 0   7.21 GB   2014-11-09 00:08 
   Законослухняний громадянин / Law Abiding Citizen (2009) patriot2305  8 / 0   1.42 GB   2013-07-06 18:29 
   Законослухняний громадянин [Режисерська версія] / Law Abiding Citizen [Unrated Director's Cut] (2009) 1080p Ukr/Eng SuperContik  5 / 0   13 GB   2010-12-25 00:55 
   Законослухняний громадянин [Режисерська версія] / Law Abiding Citizen [Unrated Director's Cut] (2009) 720p-mini Ukr/Eng imonko  1 / 0   2.93 GB   2010-12-14 16:09 
   Законослухняний громадянин [Театральна версія] / Law Abiding Citizen [Theatrical Version] (2009) 720p Ukr/Rus/Eng | Sub Eng/Rus -Roman-  2 / 0   4.37 GB   2010-03-07 08:55 
   Законослухняний громадянин / Law Abiding Citizen (2009) Ukr/Eng MutuLI  3 / 0   2.14 GB   2010-02-18 23:11 
   Законослухняний громадянин (Законопокірний громадянин) / Law Abiding Citizen (2009) DVD9 Ukr/Rus/Eng romanforyou  0 / 0   5.65 GB   2010-01-22 00:24 
11FrYkT 
Модератор відео


З нами з: 20.02.11
Востаннє: 24.04.19
Повідомлень: 5810

2018-12-08 18:26  
Documentalist написано:

мова: українська
переклад: професійний дубльований
кодек: 5.1
бітрейт: 384 кб/с

навіщо в такий реліз брати пережатий звук?

Drool 
VIP


З нами з: 17.04.10
Востаннє: 24.04.19
Повідомлень: 1513

2018-12-08 21:32  
Я правильно розумію, що це єдиний реліз, де заявлено "дубляж"?
Documentalist 
Попереджень: 1
Попереджень: 1 


З нами з: 04.06.17
Востаннє: 23.04.19
Повідомлень: 59

2018-12-09 09:28  
11FrYkT
Що? Де вiн пережатий?

Додано через 5 хвилин 49 секунд:

Drool
Вибачаюсь, помилка вийшла.
Багатоголосий закадровий. Виправив.

11FrYkT 
Модератор відео


З нами з: 20.02.11
Востаннє: 24.04.19
Повідомлень: 5810

2018-12-09 10:52  
Documentalist написано:
Що? Де вiн пережатий?

оригінал іде 448

Documentalist 
Попереджень: 1
Попереджень: 1 


З нами з: 04.06.17
Востаннє: 23.04.19
Повідомлень: 59

2018-12-09 11:12  
11FrYkT
Нема там 448...

11FrYkT 
Модератор відео


З нами з: 20.02.11
Востаннє: 24.04.19
Повідомлень: 5810

2018-12-09 17:17  
Documentalist написано:
Нема там 448...

все не туди глянув, я на режисерську дивився

Documentalist 
Попереджень: 1
Попереджень: 1 


З нами з: 04.06.17
Востаннє: 23.04.19
Повідомлень: 59

2018-12-10 01:58  
11FrYkT
В режесерськiй, теж нема 448.

ABandrera 
Новенький


З нами з: 16.12.10
Востаннє: 23.04.19
Повідомлень: 2

2019-03-03 19:34  
Привіт друзі! Допоможіть з роздачею, не можу завантажити(
Наперед вдячний!

Ваш часовий пояс: GMT + 2 Години

Нова тема   Відповісти