Прометей / Prometheus (2012) Hybrid HDTV/ 1080p [Open Matte] Ukr/Eng | Sub Ukr/Eng

Нові коментарі

Нова тема   Відповісти
Автор Повідомлення
Anonymous 







2018-12-06 03:02  
Прометей / Prometheus (2012) Hybrid HDTV/ 1080p [Open Matte] Ukr/Eng | Sub Ukr/Eng



Альтернативні постери






Жанр: фантастика, жахи, катастрофа, пригодницький, екшн
Країна: США



Кінокомпанія: 20th Century Fox, Scott Free Productions, Brandywine Productions, Dune Entertainment
Режисер: Рідлі Скотт
Актори: Нумі Рапас, Майкл Фассбендер, Шарліз Терон, Логан Маршалл-Грін, Ідріс Ельба, Гай Пірс, Патрік Уілсон

Сюжет:
Команда дослідників знаходить на Землі ключі до розкриття таємниці походження людства, що вказують їм у пошуках відповідей відправитися в захоплюючу космічну подорож до найтемніших куточків всесвіту. Там, в незвіданих світах, їм доводиться вступити в жорстоку битву за майбутнє людської раси.


Тривалість: 02:03:50
Якість: Hybrid HDTV/ 1080p [Open Matte]*
Відео:
кодек:
розмір кадру: 1920 х 1080
бітрейт: 30 Мб/с
* Відео створене суміщенням HDTV запису з каналу 1HD.RU та придбаного з російського онлайн-кінотеатру (для видалення логотипу та спливаючих реклам)

Аудіо # 1:
мова: українська
переклад: професійний дубльований
кодек: 5.1
бітрейт: 448 кб/с
Інформація про озвучення
Переклад і укладка тексту: Дмитро Тварковський
Режисер дубляжу: Костянтин Лінартович
Звукорежисер: Олександр Козярук
Менеджер проекту: Ірина Туловська
Ролі дублювали: Нумі Репас/Елізабет Шоу - Ірина Ткаленко, Лоґан Маршалл-Ґрін/Чарлі Головей - Дмитро Лінартович, Ідріс Ельба/Капітан Янек - Григорій Герман, Майкл Фасбендер/Девід - Олександр Шевчук, Шон Гарріс/Файфілд - Михайло Кришталь, Євген Горлач, Мілберн/не почув його — Михайло Тишин??, Ґай Пірс/Вейланд - Юрій Висоцький, Шарліз Терон/Мередіт Вікерс - Ірина Яценко, Наталія Заболотна, Ченс - Володимир Канівець, Ревел - Станіслав Туловський, Дмитро Тварковський, Костянтин Лінартович та інші.

Українську версію створено у 2012 році творчим колективом компанії Postmodern для компанії 20 сторіччя Фокс та Ukrainian Film Distribution
Аудіо # 2:
мова: англійська
переклад: оригінал
кодек: 5.1
бітрейт: 1509 кб/с

Субтитри # 1-2: (Forced / Full)
мова: українська
тип: програмні (м'які)
формат: *.srt

Субтитри # 3-4: (Full / SDH)
мова: англійська
тип: програмні (м'які)
формат: *.srt
Info
General
Unique ID : 274843093713755125136105421563720951413 (0xCEC4DABB36612780270E73046580E675)
Format :
Format version : Version 4 / Version 2
File size : 27.6 GiB
Duration : 2 h 3 min
Overall bit rate mode : Variable
Overall bit rate : 32.0 Mb/s
Movie name : Прометей / Prometheus (2012) [Open Matte] HDTV 1080p [Ukr.Eng Sub.Ukr.Eng] [Hurtom]
Encoded date : UTC 2018-12-05 23:21:03
Writing application : v21.0.0 ('Tardigrades Will Inherit The Earth') 64-bit
Writing library : libebml v1.3.5 + v1.4.8
Cover : Yes
Attachments : Cover2.jpg / Cover3.jpg / Cover4.jpg / Cover5.jpg / Cover1.jpg / Cover.jpg

Video
ID : 1
Format : AVC
Format/Info : Advanced Video Codec
Format profile : [email protected]
Format settings : CABAC / 4 Ref Frames
Format settings, CABAC : Yes
Format settings, RefFrames : 4 frames
Codec ID : V_MPEG4/ISO/AVC
Duration : 2 h 3 min
Bit rate mode : Variable
Bit rate : 30.0 Mb/s
Maximum bit rate : 40.0 Mb/s
Width : 1 920 pixels
Height : 1 080 pixels
Display aspect ratio : 16:9
Frame rate mode : Constant
Frame rate : 23.976 (24000/1001) FPS
Color space : YUV
Chroma subsampling : 4:2:0
Bit depth : 8 bits
Scan type : Progressive
Bits/(Pixel*Frame) : 0.603
Stream size : 25.9 GiB (94%)
Title : Prometheus (2012) [Open Matte] HDTV 1080p [Ukr.Eng Sub.Ukr.Eng] [Hurtom]
Language : English
Default : Yes
Forced : No
Color range : Limited
Color primaries : BT.709
Transfer characteristics : BT.709
Matrix coefficients : BT.709

Audio #1
ID : 2
Format : AC-3
Format/Info : Audio Coding 3
Codec ID : A_AC3
Duration : 2 h 3 min
Bit rate mode : Constant
Bit rate : 448 kb/s
Channel(s) : 6 channels
Channel positions : Front: L C R, Side: L R, LFE
Sampling rate : 48.0 kHz
Frame rate : 31.250 FPS (1536 SPF)
Bit depth : 16 bits
Compression mode : Lossy
Stream size : 397 MiB (1%)
Title : DUB | Postmodern / Blu-ray | 5.1 | 448 kbps
Language : Ukrainian
Service kind : Complete Main
Default : Yes
Forced : No

Audio #2
ID : 3
Format :
Format/Info : Digital Theater Systems
Codec ID : A_DTS
Duration : 2 h 3 min
Bit rate mode : Constant
Bit rate : 1 509 kb/s
Channel(s) : 6 channels
Channel positions : Front: L C R, Side: L R, LFE
Sampling rate : 48.0 kHz
Frame rate : 93.750 FPS (512 SPF)
Bit depth : 24 bits
Compression mode : Lossy
Stream size : 1.30 GiB (5%)
Title : Original
Language : English
Default : No
Forced : No

Text #1
ID : 4
Format : UTF-8
Codec ID : S_TEXT/UTF8
Codec ID/Info : UTF-8 Plain Text
Duration : 4 min 26 s
Bit rate : 15 b/s
Count of elements : 10
Stream size : 510 Bytes (0%)
Title : Ukrainian (Forced)
Language : Ukrainian
Default : No
Forced : No

Text #2
ID : 5
Format : UTF-8
Codec ID : S_TEXT/UTF8
Codec ID/Info : UTF-8 Plain Text
Duration : 1 h 51 min
Bit rate : 72 b/s
Count of elements : 1350
Stream size : 59.0 KiB (0%)
Title : Ukrainian (Full)
Language : Ukrainian
Default : No
Forced : No

Text #3
ID : 6
Format : UTF-8
Codec ID : S_TEXT/UTF8
Codec ID/Info : UTF-8 Plain Text
Duration : 1 h 51 min
Bit rate : 43 b/s
Count of elements : 1408
Stream size : 35.8 KiB (0%)
Title : Original (Full)
Language : English
Default : No
Forced : No

Text #4
ID : 7
Format : UTF-8
Codec ID : S_TEXT/UTF8
Codec ID/Info : UTF-8 Plain Text
Duration : 1 h 55 min
Bit rate : 53 b/s
Count of elements : 2010
Stream size : 45.2 KiB (0%)
Title : Original (SDH)
Language : English
Default : No
Forced : No

Menu
00:00:00.000 : en:00:00:00.000
00:05:13.146 : en:00:05:13.146
00:07:44.881 : en:00:07:44.881
00:11:31.524 : en:00:11:31.524
00:15:09.784 : en:00:15:09.784
00:20:04.912 : en:00:20:04.912
00:22:32.810 : en:00:22:32.810
00:27:43.120 : en:00:27:43.120
00:31:57.833 : en:00:31:57.833
00:34:10.840 : en:00:34:10.840
00:37:53.229 : en:00:37:53.229
00:40:45.360 : en:00:40:45.360
00:45:49.330 : en:00:45:49.330
00:48:47.925 : en:00:48:47.925
00:50:23.062 : en:00:50:23.062
00:53:56.400 : en:00:53:56.400
00:56:32.222 : en:00:56:32.222
00:59:31.610 : en:00:59:31.610
01:01:29.185 : en:01:01:29.185
01:04:17.562 : en:01:04:17.562
01:06:01.457 : en:01:06:01.457
01:08:57.884 : en:01:08:57.884
01:11:13.519 : en:01:11:13.519
01:15:10.631 : en:01:15:10.631
01:17:06.038 : en:01:17:06.038
01:25:02.306 : en:01:25:02.306
01:27:09.349 : en:01:27:09.349
01:30:10.363 : en:01:30:10.363
01:32:43.725 : en:01:32:43.725
01:35:23.134 : en:01:35:23.134
01:37:46.861 : en:01:37:46.861
01:40:46.374 : en:01:40:46.374
01:43:46.220 : en:01:43:46.220
01:48:28.794 : en:01:48:28.794
01:52:08.096 : en:01:52:08.096
01:58:06.288 : en:01:58:06.288
Скріншоти













Джерело:
Особиста оцінка: 10 - без зайвих вагань рекомендую всім!

R - рейтинг стрічки, встановлений Американською асоціацією кінокомпаній

MPAA, англ. Motion Picture Association of America - Американська асоціація кінокомпаній

Рейтинг R — Restricted
Підлітки до 18 років допускаються на фільм тільки у супроводі одного з батьків, або їхнього законного представника.

Обмеження — до 18 років потрібний супровід одного з батьків або дорослого опікуна (вік може змінюватися в деяких регіонах). Даний рейтинг показує, що оціночна комісія вирішила, що деякий матеріал цього фільму призначається для дорослих. Батьки повинні більше дізнатися про фільм перш, ніж узяти на його перегляд дітей. Рейтинг R також може бути призначений через використовувану у фільмі мову, теми насильства, сексу або зображення вживання наркотиків.


Не забуваємо дякувати!


 Трекер:    Зареєстрований   

Завантажити / скачати фільм українською



відео для новачків



 Зареєстрований:   2018-12-06 03:45
 Розмір:   27.65 GB 
 Оцінка фільму:   8.8/10 (Голосів: 10)
   
Інші релізи
   Прометей / Prometheus (2012) 1080p 3D [Half OverUnder] 2хUkr/Eng | Sub 2xUkr/Eng igor911  1 / 1   9.64 GB   2015-10-17 00:21 
   Прометей / Prometheus (2012) Ukr/Eng | Sub Ukr/Eng karvai0  14 / 2   2.57 GB   2012-11-22 16:50 
   Прометей / Prometheus (2012) Ukr | Sub Ukr/Eng patriot2305  9 / 0   1.46 GB   2012-11-22 16:49 
   Прометей / Prometheus (2012) AVC Ukr/Eng | Sub Ukr/Eng AngryBirdsUA  8 / 0   2.24 GB   2012-11-22 16:47 
   Прометей / Prometheus (2012) 1080p (60fps) Ukr/Eng | Sub Ukr/Eng grizz  6 / 0   17.26 GB   2012-10-12 13:48 
   Прометей / Prometheus (2012) 1080p-mini Ukr/Eng | Sub Ukr/Eng petro777  3 / 0   4.81 GB   2012-10-01 18:25 
   Прометей / Prometheus (2012) Blu-ray 1080p Ukr/Multi | Sub Ukr/Multi 11FrYkT  0 / 0   44.21 GB   2012-09-30 11:37 
   Прометей / Prometheus (2012) 1080p Ukr/Eng | Sub Ukr/Eng 11FrYkT  13 / 0   9.43 GB   2012-09-30 09:48 
   Прометей / Prometheus (2012) Remux 1080p Ukr/Eng | Sub Ukr/Eng 11FrYkT  5 / 0   29.58 GB   2012-09-29 18:24 
   Прометей / Prometheus (2012) 720p Ukr/Eng | Sub Ukr/Eng 11FrYkT  1 / 0   6.21 GB   2012-09-28 18:56 
   Прометей / Prometheus (2012) DVD9 Eng/Rus/Ukr | Ліцензія vitalicio  2 / 0   7.01 GB   2012-09-23 12:29 
igor911 
Модератор відео


З нами з: 18.01.08
Востаннє: 20.05.19
Повідомлень: 12511

2018-12-06 10:17  
Порівняння скріншотів Blu-ray - Hybrid:


Blu-ray <---------->Hybrid (цей реліз)




Як на мене, то картинка в цьому гібриді вийшла занадто зерниста та зашумлена. Щодо open matte - то кадр було додано по вертикалі та обрізано по горизонталі.

Ваш часовий пояс: GMT + 2 Години

Нова тема   Відповісти