Земля тролів / Askeladden - I Dovregubbens hall (2017) 1080p Ukr/Nor

Нові коментарі

Нова тема   Відповісти
Автор Повідомлення
staf777 
Відео Гуртом - підтримка та поширення
Відео Гуртом - підтримка та поширення


З нами з: 16.11.16
Востаннє: 16.01.21
Повідомлень: 4804

2018-12-05 22:44  
Земля тролів / Askeladden - I Dovregubbens hall (2017) 1080p Ukr/Nor

Земля тролів / Askeladden - I Dovregubbens hall (2017) 1080p Ukr/Nor


Жанр: пригодницький, фентезі
Країна: Норвегія



Кінокомпанія: Maipo Film, Sirena Film, Subotica Entertainment
Режисер: Міккель Бренне Сандемусе
Актори: Торбьорн Харр, Еллан Хайд, Сінневе Макоді Лунд, Артур Бернінг, Еллі Харбоа

Сюжет:
Діло було в одному прекрасному королівстві. Красуня-принцеса Крістен (Еллі Харбоа) не хоче виходити заміж за кандидата, на якому наполягає король, і вирішує втекти. Подорож лісом виявляється не такою вже й безпечною. Бо ж всі знають про Короля Гори – потворного велетня, який не знає жалю до своїх непроханих гостей. Оголошено пошук принцеси. Той, хто її знайде отримає найбажаніші нагороди – незліченні королівські скарби та принцесу собі в дружини. Юнак на ім’я Еспен готовий іти углиб лісу. Батько і брати його мають за невдаху та незграбу, родинна справа на межі банкрутства – тож королівські гроші стануть в нагоді. Та складність полягає у тому, що шукати принцесу доведеться у землі тролів – там, де краще не ходити, якщо ти не готовий попрощатися з життям.


Тривалість: 01:44:42
Якість: 1080p
Відео:
кодек:
розмір кадру: 1920 х 808
бітрейт: 8 925 кб/с

Аудіо # 1:
мова: українська
переклад: професійний дубльований | студія Tretyakoff production на замовлення Svoe kino
кодек: 2.0
бітрейт: 192 кб/с

Аудіо # 2:
мова: норвезька
переклад: оригінал
кодек: 5.1
бітрейт: 1509 кб/с
Info
General
Unique ID : 104254892486533459424462098241790782164 (0x4E6EC30DC534CA1D6494EC3E1CC5AAD4)
Complete name : N:\Фільми HD\Фентезі\Askeladden - I Dovregubbens hall (2017) 1080p [Ukr][Nor][Hurtom].
Format :
Format version : Version 4 / Version 2
File size : 7.77 GiB
Duration : 1 h 44 min
Overall bit rate mode : Variable
Overall bit rate : 10.6 Mb/s
Movie name : Askeladden - I Dovregubbens hall (2017) 1080p [Ukr][Nor][Hurtom]
Encoded date : UTC 2018-12-05 20:22:19
Writing application : v24.0.0 ('Beyond The Pale') 64-bit
Writing library : libebml v1.3.6 + v1.4.9
Cover : Yes
Attachments : cover.jpg

Video
ID : 1
Format : AVC
Format/Info : Advanced Video Codec
Format profile : [email protected]
Format settings : CABAC / 4 Ref Frames
Format settings, CABAC : Yes
Format settings, ReFrames : 4 frames
Codec ID : V_MPEG4/ISO/AVC
Duration : 1 h 44 min
Bit rate mode : Variable
Bit rate : 8 925 kb/s
Maximum bit rate : 40.0 Mb/s
Width : 1 920 pixels
Height : 808 pixels
Display aspect ratio : 2.40:1
Frame rate mode : Constant
Frame rate : 23.976 (23976/1000) FPS
Color space : YUV
Chroma subsampling : 4:2:0
Bit depth : 8 bits
Scan type : Progressive
Bits/(Pixel*Frame) : 0.240
Stream size : 6.53 GiB (84%)
Writing library : core 148 r2665 a01e339
Encoding settings : cabac=1 / ref=5 / deblock=1:-1:-1 / analyse=0x3:0x113 / me=umh / subme=7 / psy=1 / psy_rd=1.00:0.15 / mixed_ref=1 / me_range=16 / chroma_me=1 / trellis=1 / 8x8dct=1 / cqm=0 / deadzone=21,11 / fast_pskip=1 / chroma_qp_offset=-3 / threads=9 / lookahead_threads=1 / sliced_threads=0 / slices=4 / nr=0 / decimate=1 / interlaced=0 / bluray_compat=1 / constrained_intra=0 / bframes=3 / b_pyramid=1 / b_adapt=1 / b_bias=0 / direct=1 / weightb=1 / open_gop=1 / weightp=1 / keyint=240 / keyint_min=1 / scenecut=40 / intra_refresh=0 / rc_lookahead=40 / rc=2pass / mbtree=1 / bitrate=8925 / ratetol=1.0 / qcomp=0.60 / qpmin=0 / qpmax=69 / qpstep=4 / cplxblur=20.0 / qblur=0.5 / vbv_maxrate=40000 / vbv_bufsize=30000 / nal_hrd=vbr / filler=0 / ip_ratio=1.40 / aq=1:1.00
Default : Yes
Forced : No
Color range : Limited
Color primaries : BT.709
Transfer characteristics : BT.709
Matrix coefficients : BT.709

Audio #1
ID : 2
Format : AC-3
Format/Info : Audio Coding 3
Codec ID : A_AC3
Duration : 1 h 44 min
Bit rate mode : Constant
Bit rate : 192 kb/s
Channel(s) : 2 channels
Channel positions : Front: L R
Sampling rate : 48.0 kHz
Frame rate : 31.250 FPS (1536 SPF)
Bit depth : 16 bits
Compression mode : Lossy
Stream size : 144 MiB (2%)
Title : [Ukr-Dub-Tretyakoff production]
Language : Ukrainian
Service kind : Complete Main
Default : Yes
Forced : Yes

Audio #2
ID : 3
Format :
Format/Info : Digital Theater Systems
Format profile : ES Matrix / Core
Codec ID : A_DTS
Duration : 1 h 44 min
Bit rate mode : Constant
Bit rate : 1 509 kb/s
Channel(s) : 7 channels / 6 channels
Channel positions : Front: L C R, Side: L R, Back: C, LFE / Front: L C R, Side: L R, LFE
Sampling rate : 48.0 kHz
Frame rate : 93.750 FPS (512 SPF)
Bit depth : 24 bits
Compression mode : Lossy
Stream size : 1.10 GiB (14%)
Language : Norwegian
Default : No
Forced : No






Запис з ТБ та синхронізація доріжки Bohdan237
Дякую пану Bohdan237 за допомогу в створені реліза
Джерело: &
Особиста оцінка: 8 - мені сподобалося
Земля тролів / Askeladden - I Dovregubbens hall (2017) 1080p Ukr/Nor Земля тролів / Askeladden - I Dovregubbens hall (2017) 1080p Ukr/Nor




 Трекер:    Зареєстрований   

Завантажити / скачати фільм українською



відео для новачків



 Зареєстрований:   2018-12-05 22:44
 Розмір:   7.77 GB 
 Оцінка фільму:   9/10 (Голосів: 15)
   
Інші релізи
PanEndo 
Новенький


З нами з: 11.07.13
Востаннє: 16.01.21
Повідомлень: 6

2019-01-10 18:09  
Надзвичайно примітивне гівно. Не раджу дивитися всім, хто старший 10 років.
Рейтинг не інакше як норвежцями накручений.

patlatyj1000 
Новенький


З нами з: 13.12.12
Востаннє: 24.12.20
Повідомлень: 15

2019-01-12 19:46  
PanEndo
Цитата:
Надзвичайно примітивне гівно. Не раджу дивитися всім, хто старший 10 років.

А Ви пропонуєте дивитися г**но тим, хто молодше 10 років. Як Вам вдалося в нього вляпатися? Це казочка для покоління, яке ще підростає. І тому не мусить бути з глибоким психологічним змістом.
Переглянути, особливо з дітьми, можна.

Vendis 
Новенький


З нами з: 08.02.12
Востаннє: 27.12.20
Повідомлень: 2

2019-05-05 08:37  
Прекрасний видовищний фільм зі змістом! Казкова фатастична стрічка! Дуже сподобалася! А які краєвиди!!! Але по скандинавськи трошки моторошнаHappy
merlin_soi 
Новенький


З нами з: 15.02.16
Востаннє: 16.01.21
Повідомлень: 22

2020-05-21 14:32  
Гарна така казочка. Видно, що грошей на шикарну комп'ютерну графіку не вистачило, але все одно виглядає класно.
Може хто знає, чи буде озвучка другої частини українською?

Garoni 
Новенький


З нами з: 24.02.11
Востаннє: 14.01.21
Повідомлень: 2

2020-07-18 21:15  
Цитата:
Може хто знає, чи буде озвучка другої частини українською?


Теж дуже цікавить це питання. Малята вже кілька місяців просять знайти.

Ваш часовий пояс: GMT + 2 Години

Нова тема   Відповісти