Герой мого часу / Hero of My Time (2018)

Нові коментарі

Нова тема   Відповісти
Автор Повідомлення
Anonymous 







2018-12-05 14:42  
Герой мого часу / Hero of My Time (2018)



Жанр: комедія
Країна: Україна



Кінокомпанія: Creative Boutique Films
Режисер: Тоня Ноябрьова
Актори: Євген Бушмакін, Олег Шевцов, Василіса Фролова, Соня Забуга, Олена Курта, Наталка Якимович, Марина Шевченко та інші

Сюжет:
Головний герой фільму - Жорік. Він - один з тих, хто приїздить шукати кращої долі до мегаполісу. І місто тут також – один з головних героїв. Сповнений романтичних сподівань, Жорік готовий йти до своєї мрії та пристрасно за неї боротися із ударами долі. Його вороги - працівники ЖЕКу, сусіди без громадянської позиції та пафосний бомонд. Як і багато українців, Жорік прагне змінити свою країну, але постійно розчаровується, бо ніяк не вдається це зробити за кілька тижнів.
Офіційні тизери та трейлер:

тизер 1:


тизер 2:


трейлер:

Вікова категорія: 12+
Тривалість: 01:17:08
Якість:
Відео:
кодек:
розмір кадру: 720х400
бітрейт: 2299 кб/с

Аудіо:
мова: українська
переклад: оригінал
кодек: 2.0
бітрейт: 192 кб/с
Info
Код:
General
Complete name               : Geroy mogo chasu (2018) [Hurtom].avi
Format                      : AVI
Format/Info                 : Audio Video Interleave
File size                   : 1.35 GiB
Duration                    : 1 h 17 min
Overall bit rate            : 2 500 kb/s
Movie name                  : Герой мого часу / Hero of My Time (2018) [Hurtom]
Writing application         : VirtualDubModUkr 1.5.10.2 (build 2542/release)
Writing library             : VirtualDubMod build 2542/release

Video
ID                          : 0
Format                      : MPEG-4 Visual
Format profile              : Advanced [email protected]
Format settings             : BVOP1
Format settings, BVOP       : 1
Format settings, QPel       : No
Format settings, GMC        : No warppoints
Format settings, Matrix     : Default (MPEG)
Codec ID                    :
Codec ID/Hint               :
Duration                    : 1 h 17 min
Bit rate                    : 2 299 kb/s
Width                       : 720 pixels
Height                      : 400 pixels
Display aspect ratio        : 16:9
Frame rate                  : 25.000 FPS
Color space                 : YUV
Chroma subsampling          : 4:2:0
Bit depth                   : 8 bits
Scan type                   : Progressive
Compression mode            : Lossy
Bits/(Pixel*Frame)          : 0.319
Stream size                 : 1.24 GiB (92%)
Writing library             : 67

Audio
ID                          : 1
Format                      : AC-3
Format/Info                 : Audio Coding 3
Commercial name             : Dolby Digital
Codec ID                    : 2000
Duration                    : 1 h 17 min
Bit rate mode               : Constant
Bit rate                    : 192 kb/s
Channel(s)                  : 2 channels
Channel layout              : L R
Sampling rate               : 48.0 kHz
Frame rate                  : 31.250 FPS (1536 SPF)
Bit depth                   : 16 bits
Compression mode            : Lossy
Stream size                 : 106 MiB (8%)
Alignment                   : Split accross interleaves
Interleave, duration        : 40  ms (1.00 video frame)
Interleave, preload duratio : 500  ms
Service kind                : Complete Main


Підтримати купівлю інших фільмів можна тут


Джерело:
Подяка автору реліза-першоджерела.


Фріліч (завантажене не впливає на рейтинг)
 Трекер:    Зареєстрований   

Завантажити / скачати український фільм



відео для новачків



 Зареєстрований:   2018-12-05 16:06
 Розмір:   1.35 GB 
 Оцінка фільму:   8.9/10 (Голосів: 33)
 ЗАЛИШАЙТЕСЬ ЯКОМОГА ДОВШЕ НА РОЗДАЧІ! ЗАВАНТАЖИВ САМ - ДАЙ ЗАВАНТАЖИТИ ІНШИМ!
   
Інші релізи
   Герой мого часу / Hero of My Time (2018) AVC 11FrYkT  15 / 1   1.09 GB   2018-12-09 19:59 
   Герой мого часу / Hero of My Time (2018) 1080p Electroz  84 / 18   3.28 GB   2018-12-04 23:45 
Leprechaun 
Частий відвідувач


З нами з: 10.10.09
Востаннє: 17.01.19
Повідомлень: 26

2018-12-05 21:31  
після зйомок фільму кудись пропала Марина Шевченко
qarty1 
Свій


З нами з: 01.11.09
Востаннє: 18.01.19
Повідомлень: 149

2018-12-20 15:23  
доволі не погано 6/10 кінцівка вбила з шаром)))
Андрерад 
Свій


З нами з: 09.06.14
Востаннє: 17.01.19
Повідомлень: 57

2018-12-22 11:10  
Головний герой - обличчя нашої нації, в відсотковому співвідношенні таких Жориків напевно десь 80%, тому так і живемо. Убогі, нещасні і бідні... дивилися наче документальний фільм, діалоги, мова - все з життя. Сум, сором і безнадія
Переглядати повторно не будемо, бо фільм провокує дипресивний настрій і бажання іхати якнайдалі від співвідчизників

Fonbaron 
Свій


З нами з: 09.12.12
Востаннє: 17.01.19
Повідомлень: 93

2018-12-30 23:22  
qarty1 написано:
кінцівка вбила з шаром)))

це середина фільму
фільм канеш треш але цікава манера подачі ще б трошкі ЗМІСТУ і ок

BazaF1 
Новенький


З нами з: 18.06.10
Востаннє: 14.01.19
Повідомлень: 6

2019-01-02 17:01  
Дуже сподобалось-зроблено висновки.Взнав сусідів )
Chibzem 
Свій


З нами з: 06.01.17
Востаннє: 17.01.19
Повідомлень: 83

2019-01-07 21:08  
Якби сценарій фільму місцями "не гальмував", а мав декілька цікавих сюжетних рішень - картину вважав би цілком цікавою та успішною. Також десь не вистачило динаміки, десь - гри акторів. Але фільм не поганий, є нові речі з яких можна посміхнутись. Окремо візначу епізоди в Арт-центрі, вони "козирні карти" даної стрічки))
Alex Jsti 
Новенький


З нами з: 10.04.11
Востаннє: 15.01.19
Повідомлень: 6

2019-01-12 11:33  
дуже топорна кінцівка
kraser200 
Новенький


З нами з: 17.02.13
Востаннє: 16.01.19
Повідомлень: 10

2019-01-12 20:00  
Це комедія ?
Alex Jsti 
Новенький


З нами з: 10.04.11
Востаннє: 15.01.19
Повідомлень: 6

2019-01-13 00:31  
kraser200 написано:
Це комедія ?

іноді є прикольні моменти. Але скоріш ні, ніж так

virus101010 
Новенький


З нами з: 12.05.09
Востаннє: 15.01.19
Повідомлень: 16

2019-01-15 23:42  
Чудовий фільм.
Чудовий у всьому: режисура, зйомка, монтаж, гра акторів - все відмінно.
Справжній.
Без купюр.

Ваш часовий пояс: GMT + 2 Години

Нова тема   Відповісти