Мара / Mara (2018) Remux 1080p 2xUkr/Eng | Sub Eng

Нові коментарі

Нова тема   Відповісти
Останній раз роздавалося victordnepr (2019-11-16)
Автор Повідомлення
staf777 
Відео Гуртом - підтримка та поширення
Відео Гуртом - підтримка та поширення


З нами з: 16.11.16
Востаннє: 16.11.19
Повідомлень: 3030

2018-12-05 08:42  
Мара / Mara (2018) Remux 1080p 2xUkr/Eng | Sub Eng

Мара / Mara (2018) Remux 1080p 2xUkr/Eng | Sub Eng


Жанр: кримінальний, трилер, жахи
Країна: США, Велика Британія



Кінокомпанія: Mann Made Films, Aloe Entertainment
Режисер: Клайв Тонг
Актори: Ольга Куриленко, Хав'єр Ботет, Ленс Е. Ніколс, Розі Феллнер, Мелісса Болона, Маккензі Імсенд, Крейг Конвей, Мітч Ікінс, Маркус В. Везерсбі, Денді Баррет та інші

Сюжет:
Криміналіст та психолог Кейт Фуллер зазвичай бере участь у розслідуваннях злочинів та допомагає реабілітуватися жертвам. Цього разу їй доведеться добратися до істини у справі вбивства чоловіка, якого уві сні задушила дружина. Свідком у справі проходить 8-річна донька, яка на власні очі бачила смерть тата. Виявляється, що жінка до вбивства не причетна. Чоловік загинув від рук Мари – демонічної істоти, що душить людей уві сні. І це все виглядало маячнею доти, доки Кейт сама не побачила Мару. Тепер криміналіст – наступна жертва.


Тривалість: 01:39:04
Якість: Remux 1080p [[email protected]]
Джерело:
Відео:
кодек:
розмір кадру: 1920x1080
бітрейт: 24,7 Mб/с

Аудіо # 1:
мова: українська
переклад: професійний дубльований | студія AAA-Sound
кодек: 2.0 [стерео]
бітрейт: 192 кб/с

Аудіо # 2:
мова: українська
переклад: багатоголосий закадровий
кодек: 2.0 [стерео]
бітрейт: 192 кб/с

Аудіо # 3:
мова: англійська
переклад: оригінал
кодек: -HD MA 5.1
бітрейт: 2660 кб/с

Субтитри: SDH
мова: англійська
тип: програмні (м'які)
формат: *.srt
Info
General
Unique ID : 284963832428333506486227571816117697717 (0xD66209ACDFE73DE06C3EEE2289ADFCB5)
Complete name : F:\Жахи\Mara (2018) Remux 1080p [2xUKR][ENG][Hurtom].
Format :
Format version : Version 4
File size : 19.2 GiB
Duration : 1 h 39 min
Overall bit rate mode : Variable
Overall bit rate : 27.7 Mb/s
Movie name : Mara (2018) Remux 1080p [2xUKR][ENG][Hurtom]
Encoded date : UTC 2019-02-06 11:59:45
Writing application : v30.1.0 ('Forever And More') 64-bit
Writing library : libebml v1.3.6 + v1.4.9
Cover : Yes
Attachments : cover.jpg

Video
ID : 1
Format : AVC
Format/Info : Advanced Video Codec
Format profile : [email protected]
Format settings : CABAC / 4 Ref Frames
Format settings, CABAC : Yes
Format settings, ReFrames : 4 frames
Codec ID : V_MPEG4/ISO/AVC
Duration : 1 h 39 min
Bit rate mode : Variable
Bit rate : 24.7 Mb/s
Maximum bit rate : 37.0 Mb/s
Width : 1 920 pixels
Height : 1 080 pixels
Display aspect ratio : 16:9
Frame rate mode : Constant
Frame rate : 23.976 (24000/1001) FPS
Color space : YUV
Chroma subsampling : 4:2:0
Bit depth : 8 bits
Scan type : Progressive
Bits/(Pixel*Frame) : 0.497
Stream size : 17.1 GiB (89%)
Language : English
Default : Yes
Forced : No

Audio #1
ID : 2
Format : AC-3
Format/Info : Audio Coding 3
Commercial name : Dolby Digital
Codec ID : A_AC3
Duration : 1 h 39 min
Bit rate mode : Constant
Bit rate : 192 kb/s
Channel(s) : 2 channels
Channel layout : L R
Sampling rate : 48.0 kHz
Frame rate : 31.250 FPS (1536 SPF)
Bit depth : 16 bits
Compression mode : Lossy
Stream size : 136 MiB (1%)
Language : Ukrainian
Service kind : Complete Main
Default : Yes
Forced : Yes

Audio #2
ID : 3
Format : AC-3
Format/Info : Audio Coding 3
Commercial name : Dolby Digital
Codec ID : A_AC3
Duration : 1 h 39 min
Bit rate mode : Constant
Bit rate : 192 kb/s
Channel(s) : 2 channels
Channel layout : L R
Sampling rate : 48.0 kHz
Frame rate : 31.250 FPS (1536 SPF)
Bit depth : 16 bits
Compression mode : Lossy
Stream size : 136 MiB (1%)
Title : MVO [Volia CINE+] 2.0 [stereo] 192 Kbps
Language : Ukrainian
Service kind : Complete Main
Default : No
Forced : No

Audio #3
ID : 4
Format : XLL
Format/Info : Digital Theater Systems
Commercial name : -HD Master Audio
Codec ID : A_DTS
Duration : 1 h 39 min
Bit rate mode : Variable
Bit rate : 2 660 kb/s
Channel(s) : 6 channels
Channel layout : C L R Ls Rs LFE
Sampling rate : 48.0 kHz
Frame rate : 93.750 FPS (512 SPF)
Bit depth : 24 bits
Compression mode : Lossless
Stream size : 1.84 GiB (10%)
Title : Original
Language : English
Default : No
Forced : No

Text
ID : 5
Format : UTF-8
Codec ID : S_TEXT/UTF8
Codec ID/Info : UTF-8 Plain Text
Duration : 1 h 33 min
Bit rate : 41 b/s
Count of elements : 963
Stream size : 28.5 KiB (0%)
Title : SDH
Language : English
Default : No
Forced : No

Menu
00:00:00.000 : :00:00:00.000
00:05:37.504 : :00:05:37.504
00:12:59.904 : :00:12:59.904
00:17:48.317 : :00:17:48.317
00:24:14.870 : :00:24:14.870
00:29:21.301 : :00:29:21.301
00:38:57.710 : :00:38:57.710
00:43:11.214 : :00:43:11.214
00:49:14.869 : :00:49:14.869
00:55:35.207 : :00:55:35.207
01:03:00.944 : :01:03:00.944
01:06:02.500 : :01:06:02.500
01:15:13.092 : :01:15:13.092
01:23:41.725 : :01:23:41.725
01:28:35.101 : :01:28:35.101
01:31:52.507 : :01:31:52.507





Джерело: &
Особиста оцінка: 8 - мені сподобалося
Мара / Mara (2018) Remux 1080p 2xUkr/Eng | Sub Eng Мара / Mara (2018) Remux 1080p 2xUkr/Eng | Sub Eng


Подяка пану Electroz за доріжку
Подяка пану Sando7 за запис доріжки №2.
Підтримати купівлю інших фільмів можна тут.


Золотий реліз (завантажене не впливає на рейтинг)
 Трекер:    Зареєстрований   

Завантажити / скачати фільм українською



відео для новачків



 Зареєстрований:   2019-02-06 14:20
 Розмір:   19.2 GB 
 Оцінка фільму:   8.1/10 (Голосів: 11)
   
Інші релізи
   Мара / Mara (2018) 1080p 2xUkr/Eng | Sub Eng staf777  1 / 0   8 GB   2019-02-07 11:24 
   Мара / Mara (2018) 720p 2xUkr/Eng | Sub Eng staf777  2 / 0   4.46 GB   2019-02-07 10:33 
   Мара / Mara (2018) AVC 2хUkr/Eng | Sub Eng 11FrYkT  3 / 0   1.94 GB   2019-02-05 12:43 
   Мара / Mara (2018) Ukr/Eng Electroz  5 / 0   1.46 GB   2018-12-05 01:18 
kryk-v.ya. 
VIP


З нами з: 14.02.14
Востаннє: 17.11.19
Повідомлень: 1677

2018-12-06 09:08  
Цитата:
Мара

древнє словянське божество-язичницьке, тобто рідновірське...
у нас до сих пір так говорять,коли щось з людиною стається незрозуміле-"що за Мара?"

Siegfried 
VIP


З нами з: 01.11.11
Востаннє: 16.11.19
Повідомлень: 280

2018-12-06 09:52  
kryk-v.ya. написано:

древнє словянське божество-язичницьке, тобто рідновірське...


Не божество, а злий дух, це "дві великі різниці".

kryk-v.ya. 
VIP


З нами з: 14.02.14
Востаннє: 17.11.19
Повідомлень: 1677

2018-12-06 09:57  
Siegfried написано:
дух

нема проблем...нехай буде так...

staf777 
Відео Гуртом - підтримка та поширення
Відео Гуртом - підтримка та поширення


З нами з: 16.11.16
Востаннє: 16.11.19
Повідомлень: 3030

2018-12-06 10:25  
Дивився десь після другої години ночі - в навушниках на 42-му моніторі - накурений - жесть аж протверезів...
kryk-v.ya. 
VIP


З нами з: 14.02.14
Востаннє: 17.11.19
Повідомлень: 1677

2018-12-06 11:15  
staf777 написано:
накурений

дозвольте спитати,а з чим саме "дивились" може і я попробую...

vtl558 
Новенький


З нами з: 19.04.12
Востаннє: 16.11.19
Повідомлень: 3

2018-12-06 21:05  
Цитата:
з чим саме

подивіться на аватар staf777 Happy

staf777 
Відео Гуртом - підтримка та поширення
Відео Гуртом - підтримка та поширення


З нами з: 16.11.16
Востаннє: 16.11.19
Повідомлень: 3030

2019-02-06 14:23  
Додав доріжку від 
Siegfried 
VIP


З нами з: 01.11.11
Востаннє: 16.11.19
Повідомлень: 280

2019-03-04 13:44  
Провальна картина.

Цікава фабула про слов’янського злого духа, але вкрай паршиво все реалізовано.
Ну хоча б саму Мару (я чув в Україні лише з наголосом на останньому складі, у фільмі наголос чомусь постійно на першому) якісно зробили – але й тут щось неперконливе анорексично-карикатурне.

Крім ідеї цей фільм не має більше плюсів.

Лише за задум 2/10

Ваш часовий пояс: GMT + 2 Години

Нова тема   Відповісти