Мара / Mara (2018) 1080p 2xUkr/Eng | Sub Eng

Нові коментарі

Нова тема   Відповісти
Автор Повідомлення
staf777 
Відео Гуртом - підтримка та поширення
Відео Гуртом - підтримка та поширення


З нами з: 16.11.16
Востаннє: 16.09.19
Повідомлень: 2859

2018-12-05 08:51  
Мара / Mara (2018) 1080p 2xUkr/Eng | Sub Eng

Мара / Mara (2018) 1080p 2xUkr/Eng | Sub Eng


Жанр: кримінальний, трилер, жахи
Країна: США, Велика Британія



Кінокомпанія: Mann Made Films, Aloe Entertainment
Режисер: Клайв Тонг
Актори: Ольга Куриленко, Хав'єр Ботет, Ленс Е. Ніколс, Розі Феллнер, Мелісса Болона, Маккензі Імсенд, Крейг Конвей, Мітч Ікінс, Маркус В. Везерсбі, Денді Баррет та інші

Сюжет:
Криміналіст та психолог Кейт Фуллер зазвичай бере участь у розслідуваннях злочинів та допомагає реабілітуватися жертвам. Цього разу їй доведеться добратися до істини у справі вбивства чоловіка, якого уві сні задушила дружина. Свідком у справі проходить 8-річна донька, яка на власні очі бачила смерть тата. Виявляється, що жінка до вбивства не причетна. Чоловік загинув від рук Мари – демонічної істоти, що душить людей уві сні. І це все виглядало маячнею доти, доки Кейт сама не побачила Мару. Тепер криміналіст – наступна жертва.


Тривалість: 01:39:04
Якість: 1080p
Відео:
кодек:
розмір кадру: 1920x804
бітрейт: 9669 кб/с

Аудіо # 1:
мова: українська
переклад: професійний дубльований | студія AAA-Sound
кодек: 2.0 [стерео]
бітрейт: 192 кб/с

Аудіо # 2:
мова: українська
переклад: багатоголосий закадровий
кодек: 2.0 [стерео]
бітрейт: 192 кб/с

Аудіо # 3:
мова: англійська
переклад: оригінал
кодек: 5.1
бітрейт: 1509 кб/с

Субтитри: SDH
мова: англійська
тип: програмні (м'які)
формат: *.srt
Info
General
Unique ID : 142397071519599387692248466797442968121 (0x6B20ADABD61B834BE9922BD435412A39)
Complete name : S:\» HD українською » Фільми в HD\Жахи\Mara (2018) 1080p [2xUKR][ENG][Hurtom].
Format :
Format version : Version 4
File size : 8.00 GiB
Duration : 1 h 39 min
Overall bit rate : 11.6 Mb/s
Movie name : Mara (2018) 1080p [2xUKR][ENG][Hurtom]
Encoded date : UTC 2019-02-07 08:44:14
Writing application : v30.1.0 ('Forever And More') 64-bit
Writing library : libebml v1.3.6 + v1.4.9
Cover : Yes
Attachments : cover.jpg

Video
ID : 1
Format : AVC
Format/Info : Advanced Video Codec
Format profile : [email protected]
Format settings : CABAC / 4 Ref Frames
Format settings, CABAC : Yes
Format settings, ReFrames : 4 frames
Codec ID : V_MPEG4/ISO/AVC
Duration : 1 h 39 min
Bit rate : 9 669 kb/s
Width : 1 920 pixels
Height : 804 pixels
Display aspect ratio : 2.40:1
Frame rate mode : Constant
Frame rate : 23.976 (24000/1001) FPS
Color space : YUV
Chroma subsampling : 4:2:0
Bit depth : 8 bits
Scan type : Progressive
Bits/(Pixel*Frame) : 0.261
Stream size : 6.69 GiB (84%)
Title : CHD
Writing library : core 155 r2867+74 66b5600 t_mod_Custom_2 [[email protected] X86_64]
Encoding settings : cabac=1 / ref=4 / deblock=1:-3:-3 / analyse=0x3:0x113 / me=umh / subme=10 / psy=1 / fade_compensate=0.00 / psy_rd=0.90:0.10 / mixed_ref=1 / me_range=48 / chroma_me=1 / trellis=2 / 8x8dct=1 / cqm=0 / deadzone=21,11 / fast_pskip=0 / chroma_qp_offset=-2 / threads=12 / lookahead_threads=2 / sliced_threads=0 / nr=0 / decimate=1 / interlaced=0 / bluray_compat=0 / constrained_intra=0 / fgo=0 / bframes=8 / b_pyramid=2 / b_adapt=2 / b_bias=0 / direct=3 / weightb=1 / open_gop=0 / weightp=2 / keyint=250 / keyint_min=23 / scenecut=40 / intra_refresh=0 / rc_lookahead=40 / rc=crf / mbtree=0 / crf=18.0000 / qcomp=0.70 / qpmin=0:0:0 / qpmax=69:69:69 / qpstep=4 / vbv_maxrate=35000 / vbv_bufsize=35000 / crf_max=0.0 / nal_hrd=none / filler=0 / ip_ratio=1.40 / pb_ratio=1.30 / aq=3:0.90 / aq-sensitivity=10.00 / aq-factor=1.00:1.00:1.00 / aq2=0 / aq3=2:[0.50:0.50]:[0.50:0.50]:[0.50:0.50]:[0.50:0.50] / aq3-sensitivity=10.00 / aq3-factor=[1.00:1.00]:[1.00:1.00]:[1.00:1.00] / aq3-boundary=192:64:24
Language : English
Default : Yes
Forced : No
Color range : Limited
Matrix coefficients : BT.709

Audio #1
ID : 2
Format : AC-3
Format/Info : Audio Coding 3
Commercial name : Dolby Digital
Codec ID : A_AC3
Duration : 1 h 39 min
Bit rate mode : Constant
Bit rate : 192 kb/s
Channel(s) : 2 channels
Channel layout : L R
Sampling rate : 48.0 kHz
Frame rate : 31.250 FPS (1536 SPF)
Bit depth : 16 bits
Compression mode : Lossy
Stream size : 136 MiB (2%)
Language : Ukrainian
Service kind : Complete Main
Default : Yes
Forced : Yes

Audio #2
ID : 3
Format : AC-3
Format/Info : Audio Coding 3
Commercial name : Dolby Digital
Codec ID : A_AC3
Duration : 1 h 39 min
Bit rate mode : Constant
Bit rate : 192 kb/s
Channel(s) : 2 channels
Channel layout : L R
Sampling rate : 48.0 kHz
Frame rate : 31.250 FPS (1536 SPF)
Bit depth : 16 bits
Compression mode : Lossy
Stream size : 136 MiB (2%)
Title : MVO [Volia CINE+] 2.0 [stereo] 192 Kbps
Language : Ukrainian
Service kind : Complete Main
Default : No
Forced : No

Audio #3
ID : 4
Format :
Format/Info : Digital Theater Systems
Codec ID : A_DTS
Duration : 1 h 39 min
Bit rate mode : Constant
Bit rate : 1 509 kb/s
Channel(s) : 6 channels
Channel layout : C L R Ls Rs LFE
Sampling rate : 48.0 kHz
Frame rate : 93.750 FPS (512 SPF)
Bit depth : 24 bits
Compression mode : Lossy
Stream size : 1.04 GiB (13%)
Title : Original
Language : English
Default : No
Forced : No

Text
ID : 5
Format : UTF-8
Codec ID : S_TEXT/UTF8
Codec ID/Info : UTF-8 Plain Text
Duration : 1 h 33 min
Bit rate : 41 b/s
Count of elements : 963
Stream size : 28.5 KiB (0%)
Title : SDH
Language : English
Default : No
Forced : No

Menu
00:00:00.000 : :00:00:00.000
00:05:37.504 : :00:05:37.504
00:12:59.904 : :00:12:59.904
00:17:48.317 : :00:17:48.317
00:24:14.870 : :00:24:14.870
00:29:21.301 : :00:29:21.301
00:38:57.710 : :00:38:57.710
00:43:11.214 : :00:43:11.214
00:49:14.869 : :00:49:14.869
00:55:35.207 : :00:55:35.207
01:03:00.944 : :01:03:00.944
01:06:02.500 : :01:06:02.500
01:15:13.092 : :01:15:13.092
01:23:41.725 : :01:23:41.725
01:28:35.101 : :01:28:35.101
01:31:52.507 : :01:31:52.507






Джерело: &
Особиста оцінка: 8 - мені сподобалося
Мара / Mara (2018) 1080p 2xUkr/Eng | Sub Eng Мара / Mara (2018) 1080p 2xUkr/Eng | Sub Eng

Подяка пану Sando7 за запис доріжки №2.
Підтримати купівлю інших фільмів можна тут.


 Трекер:    Зареєстрований   

Завантажити / скачати фільм українською



відео для новачків



 Зареєстрований:   2019-02-07 12:24
 Розмір:   8 GB 
 Оцінка фільму:   9.1/10 (Голосів: 14)
   
Інші релізи
   Мара / Mara (2018) 720p 2xUkr/Eng | Sub Eng staf777  2 / 0   4.46 GB   2019-02-07 11:33 
   Мара / Mara (2018) Remux 1080p 2xUkr/Eng | Sub Eng staf777  2 / 0   19.2 GB   2019-02-06 15:20 
   Мара / Mara (2018) AVC 2хUkr/Eng | Sub Eng 11FrYkT  5 / 0   1.94 GB   2019-02-05 13:43 
   Мара / Mara (2018) Ukr/Eng Electroz  12 / 0   1.46 GB   2018-12-05 02:18 
Kumcheg1995 
Частий відвідувач


З нами з: 05.01.17
Востаннє: 16.09.19
Повідомлень: 27

2018-12-05 17:15  
Класний фільм. 11/10. Перед сном краще не дивитися)
Panther2214 
Попереджень: 1
Попереджень: 1 


З нами з: 29.09.17
Востаннє: 16.09.19
Повідомлень: 290

2018-12-05 18:53  
Kumcheg1995

Особам зі сталевими нервами та залізною психікою, цей фільм нічим не загрожує - мені якось байдуже, вигадка жахливих історій...

staf777 
Відео Гуртом - підтримка та поширення
Відео Гуртом - підтримка та поширення


З нами з: 16.11.16
Востаннє: 16.09.19
Повідомлень: 2859

2019-02-07 12:27  
Додав доріжку від 
Ваш часовий пояс: GMT + 2 Години

Нова тема   Відповісти