Зачаровані Місяцем / Moonstruck (1987) AVC Ukr/Eng | Sub Ukr/Eng

Нові коментарі

Нова тема   Відповісти
Автор Повідомлення
staf777 
Відео Гуртом - підтримка та поширення
Відео Гуртом - підтримка та поширення


З нами з: 16.11.16
Востаннє: 22.04.19
Повідомлень: 2281

2018-12-04 20:18  
Зачаровані Місяцем / Moonstruck (1987) AVC Ukr/Eng | Sub Ukr/Eng


Зачаровані Місяцем / Moonstruck (1987) AVC Ukr/Eng | Sub Ukr/Eng

«Life. Family. Love.»


Жанр: комедія, романтичний, драма
Країна: США


Кіностудія / кінокомпанія: Metro-Goldwyn-Mayer (MGM), Star Partners
Режисер: Норман Джевісон (Norman Jewison)
Композитор: Дік Гаймен (Dick Hyman)
Актори: Ніколас Кейдж (Nicolas Cage), Шер (Cher), Вінсент Ґарденія (Vincent Gardenia), Олімпія Дукакіс (Olympia Dukakis), Денні Аєло (Danny Aiello), Джулі Бовасо (Julie Bovasso), Джон Магоні (John Mahoney), Луїс Ґас (Louis Guss) та інші.

Сюжет:
Коли над містом сходить повний місяць, дивні речі відбуваються з поважною італійською родиною в якому донька напередодні свого другого заміжжя раптом розуміє, що кохає іншого, батько невірний своїй дружині, а до останньою залицяється сторонній чоловік...
Перемоги, номінації, цікаві факти

Приз Національної ради оглядачів за другорядна жіночу роль, за підсумками 1988 року - «Давид» Донателло» в Італії найкращій іноземній акторці, «Срібна стрічка» в Італії найкращій іноземній акторці (Шер - порівну зі Стефан Одран / Stéphane Audran, яка зіграла у стрічці «Бенкет Бабети» / Babettes gæstebud).

Британська академія, 1989 рік
Переможець (1):
Найкраща жіноча роль другого плану (Олімпія Дукакіс)

Номінації (3):
Найкраща жіноча роль (Шер)
Найкращий оригінальний сценарій
Найкращий саундтрек

Оскар, 1988 рік
Переможець (3):
Найкраща жіноча роль (Шер)
Найкраща жіноча роль другого плану (Олімпія Дукакіс)
Найкращий сценарій

Номінації (3):
Найкращий фільм
Найкраща чоловіча роль другого плану (Вінсент Ґарденія)
Найкращий режисер (Норман Джевісон)

Золотий глобус, 1988 рік
Переможець (2):
Найкраща жіноча роль (комедія або мюзикл) (Шер)
Найкраща жіноча роль другого плану (Олімпія Дукакіс)

Номінації (3):
Найкращий фільм (комедія або мюзикл)
Найкраща чоловіча роль (комедія або мюзикл) (Ніколас Кейдж)
Найкращий сценарій

Берлінський кінофестиваль, 1988 рік
Переможець (1):
Срібний Ведмідь за найкращу режисерську роботу (Норман Джевісон)

Номінації (1):
Золотий Ведмідь

Цікавий факт про фільм

• Олімпія Дукакіс всього на 15 років старша за свою екранну доньку Шер.
Тривалість: 01:41:55
Якість: AVC
Відео:
кодек:
розмір кадру: 1024x560
бітрейт: 2160 кб/с

Аудіо # 1:
мова: українська
переклад: двоголосий закадровий Новий Канал | усі чоловічі ролі озвучив Михайло Жонін
кодек: 5.1
бітрейт: 384 кб/с

Аудіо # 2:
мова: англійська
переклад: оригінал
кодек: 5.1
бітрейт: 448 кб/с

Субтитри # 1 :
мова: українська
тип: програмні (м'які)
формат: *.srt
джерело субтитрів: DVD, синхронізація і редагування: w2958l

Субтитри # 2:
мова: англійська
тип: пререндерні
формат: PGS
Info
General
Unique ID : 201494092461401300567243096594119946665 (0x979659C2D00652D9BF54F1CB159C71A9)
Complete name : N:\Moonstruck (1987) [Ukr,Eng sub.Ukr,Eng] AVC [Hurtom].
Format :
Format version : Version 4 / Version 2
File size : 2.14 GiB
Duration : 1 h 41 min
Overall bit rate : 3 007 kb/s
Movie name : Moonstruck (1987) [Ukr,Eng sub.Ukr,Eng] AVC [Hurtom]
Encoded date : UTC 2018-12-05 09:18:04
Writing application : v24.0.0 ('Beyond The Pale') 64-bit
Writing library : libebml v1.3.6 + v1.4.9
Cover : Yes
Attachments : cover.jpg

Video
ID : 1
Format : AVC
Format/Info : Advanced Video Codec
Format profile : [email protected]
Format settings : CABAC / 4 Ref Frames
Format settings, CABAC : Yes
Format settings, ReFrames : 4 frames
Codec ID : V_MPEG4/ISO/AVC
Duration : 1 h 41 min
Bit rate : 2 160 kb/s
Width : 1 024 pixels
Height : 560 pixels
Display aspect ratio : 1.85:1
Frame rate mode : Constant
Frame rate : 23.976 FPS
Color space : YUV
Chroma subsampling : 4:2:0
Bit depth : 8 bits
Scan type : Progressive
Bits/(Pixel*Frame) : 0.157
Stream size : 1.54 GiB (72%)
Writing library : core 112
Encoding settings : cabac=1 / ref=3 / deblock=1:0:0 / analyse=0x3:0x113 / me=hex / subme=7 / psy=1 / psy_rd=1.00:0.00 / mixed_ref=1 / me_range=16 / chroma_me=1 / trellis=1 / 8x8dct=1 / cqm=0 / deadzone=21,11 / fast_pskip=1 / chroma_qp_offset=-2 / threads=3 / sliced_threads=0 / nr=0 / decimate=1 / interlaced=0 / constrained_intra=0 / bframes=3 / b_pyramid=2 / b_adapt=1 / b_bias=0 / direct=1 / weightb=1 / open_gop=0 / weightp=2 / keyint=240 / keyint_min=23 / scenecut=40 / intra_refresh=0 / rc_lookahead=40 / rc=2pass / mbtree=1 / bitrate=2160 / ratetol=1.0 / qcomp=0.60 / qpmin=3 / qpmax=51 / qpstep=4 / cplxblur=20.0 / qblur=0.5 / ip_ratio=1.40 / aq=1:1.00
Language : English
Default : Yes
Forced : No
Color range : Limited
Color primaries : BT.709
Transfer characteristics : BT.709
Matrix coefficients : BT.709

Audio #1
ID : 2
Format : AC-3
Format/Info : Audio Coding 3
Codec ID : A_AC3
Duration : 1 h 41 min
Bit rate mode : Constant
Bit rate : 384 kb/s
Channel(s) : 6 channels
Channel positions : Front: L C R, Side: L R, LFE
Sampling rate : 48.0 kHz
Frame rate : 31.250 FPS (1536 SPF)
Bit depth : 16 bits
Compression mode : Lossy
Delay relative to video : 1 s 500 ms
Stream size : 280 MiB (13%)
Title : [Ukr-Mvo-H]
Language : Ukrainian
Service kind : Complete Main
Default : Yes
Forced : Yes

Audio #2
ID : 3
Format : AC-3
Format/Info : Audio Coding 3
Codec ID : A_AC3
Duration : 1 h 41 min
Bit rate mode : Constant
Bit rate : 448 kb/s
Channel(s) : 6 channels
Channel positions : Front: L C R, Side: L R, LFE
Sampling rate : 48.0 kHz
Frame rate : 31.250 FPS (1536 SPF)
Bit depth : 16 bits
Compression mode : Lossy
Stream size : 327 MiB (15%)
Language : English
Service kind : Complete Main
Default : No
Forced : No

Text #1
ID : 4
Format : UTF-8
Codec ID : S_TEXT/UTF8
Codec ID/Info : UTF-8 Plain Text
Duration : 1 h 37 min
Bit rate : 90 b/s
Count of elements : 1181
Stream size : 64.5 KiB (0%)
Language : Ukrainian
Default : No
Forced : No

Text #2
ID : 5
Format : PGS
Muxing mode : zlib
Codec ID : S_HDMV/PGS
Codec ID/Info : Picture based subtitle format used on BDs/HD-DVDs
Duration : 1 h 38 min
Bit rate : 39.7 kb/s
Count of elements : 2724
Stream size : 28.0 MiB (1%)
Language : English
Default : No
Forced : No




Джерело: &
Особиста оцінка: 0 - не дивився
ЗАЛИШАЙТЕСЬ ЯКОМОГА ДОВШЕ НА РОЗДАЧІ!

СКАЧАВ САМ - ДАЙ СКАЧАТИ ІНШИМ



Срібний реліз (на рейтинг впливає 50% завантаженого)
 Трекер:    Зареєстрований   

Завантажити / скачати фільм українською



відео для новачків



 Зареєстрований:   2018-12-05 20:32
 Розмір:   2.14 GB 
 Оцінка фільму:   8.5/10 (Голосів: 6)
   
bot 
робот


З нами з: 30.09.07
Востаннє: 26.05.05
Повідомлень: 21229

2018-12-05 20:32  
Тему перенесено з Анонси релізів до форуму Фільми


staf777

Ваш часовий пояс: GMT + 2 Години

Нова тема   Відповісти