Пуаро Агати Крісті (Сезони 1-13) / Agatha Christie: Poirot (Seasons 1-13) (1989-2013) 1080p Ukr/Eng | sub Eng

Нові коментарі

Нова тема   Відповісти
Автор Повідомлення
Arsenfpu 
Відео Гуртом - фільмокрай
Відео Гуртом - фільмокрай


З нами з: 30.04.09
Востаннє: 01.12.20
Повідомлень: 7480

2018-12-04 15:16  
Пуаро Агати Крісті (Сезони 1-13) / Agatha Christie: Poirot (Seasons 1-13) (1989-2013) 1080p Ukr/Eng | sub Eng

Пуаро Агати Крісті (Сезони 1-13) / Agatha Christie: Poirot (Seasons 1-13) (1989-2013) 1080p Ukr/Eng | sub Eng


Жанр: детектив, драма
Країна: Великобританія



Кінокомпанія: Carnival Film & Television, London Weekend Television (LWT), Picture Partnership Productions
Режисер: Клайв Екстон
Актори: Девід Суше, Х'ю Фрейзер, Філіп Джексон, Полін Морен

Сюжет:
Перша половина XX. століття. Еркюль Пуаро - приватний детектив, бельгієць. Він живе в Англії і, зрозуміло, повинен мати неабиякі здібності, щоб зарекомендувати себе у цьому світі, де його сприймають як француза, одного з одвічних ворогів Англії. Ще одна сторона барикади - поліція, яка ніколи не хоче ставити під сумнів свій авторитет. Але пройде час, усі зрозуміють - Пуаро справді незвичайний детектив. За мотивами Агати Крісті.
Пуаро Агати Крісті (Сезон 1) / Agatha Christie: Poirot (Season 1) (1989) 1080p Ukr/Eng | sub Eng

Пуаро Агати Крісті (Сезон 1) / Agatha Christie: Poirot (Season 1) (1989) 1080p Ukr/Eng | sub Eng

Пуаро Агати Крісті (Сезони 1-13) / Agatha Christie: Poirot (Seasons 1-13) (1989-2013) 1080p Ukr/Eng | sub Eng

Тривалість: 1 серія: ~ 50 хвилин (цілком серій: 10)

Перелік серій
1. Пригода кухарки з Клепгему / The Adventure of the Clapham Cook (1989)
2. Вбивство в парку Мьюз / Murder in the Mews (1989)
3. Пригода Джонні Вейверлі / The Adventure of Johnnie Waverly (1989)
4. 24 дрозди / Four and Twenty Blackbirds (1989)
5. Квартира на третьому поверсі / The Third Floor Flat (1989)
6. Родоський трикутник / Triangle at Rhodes (1989)
7. Клопіт у морі / Problem at Sea (1989)
8. Дивна крадіжка / The Incredible Theft (1989)
9. Жировий король / The King of Clubs (1989)
10. Сон / The Dream (1989)

Якість: 1080p
Відео:
кодек:
розмір кадру: 1440х1080
бітрейт: ~11 Мб/с

Аудіо # 1:
мова: українська
переклад: двоголосий закадровий
кодек: 2.0
бітрейт: 192 кб/с

Аудіо # 2:
мова: англійська
переклад: оригінал
кодек: 2.0
бітрейт: 256 кб/с

Субтитри:
мова: англійська
тип: програмні (м'які)
формат: *.srt
Info
General
Unique ID : 244537967266427646753714735360404353327 (0xB7F84CA37FCBD9F21CC07A7B8133F12F)
Complete name : D:\Фільми\Poirot (1989-2013) [Season 1-13] [Ukr,Eng] 1080p [Hurtom]\Poirot (1989) [Season 1] [Ukr,Eng] 1080p [Hurtom]\Poirot (1989) [S01E02] [Ukr,Eng] 1080p [Hurtom].
Format :
Format version : Version 4 / Version 2
File size : 4.13 GiB
Duration : 52mn 54s
Overall bit rate : 11.2 Mbps
Encoded date : UTC 2018-11-25 11:51:56
Writing application : v21.0.0 ('Tardigrades Will Inherit The Earth') 32-bit
Writing library : libebml v1.3.5 + v1.4.8
DURATION : 00:52:54.016000000
NUMBER_OF_FRAMES : 99188
NUMBER_OF_BYTES : 76176384
_STATISTICS_WRITING_APP : v21.0.0 ('Tardigrades Will Inherit The Earth') 32-bit
_STATISTICS_WRITING_DATE_UTC : 2018-11-25 11:51:56
_STATISTICS_TAGS : BPS DURATION NUMBER_OF_FRAMES NUMBER_OF_BYTES
Attachment : Yes / Yes

Video
ID : 1
Format : AVC
Format/Info : Advanced Video Codec
Format profile : [email protected]
Format settings, CABAC : Yes
Format settings, ReFrames : 5 frames
Codec ID : V_MPEG4/ISO/AVC
Duration : 52mn 54s
Bit rate : 11.0 Mbps
Width : 1 440 pixels
Height : 1 080 pixels
Display aspect ratio : 4:3
Frame rate : 24.000 fps
Color space : YUV
Chroma subsampling : 4:2:0
Bit depth : 8 bits
Scan type : Progressive
Bits/(Pixel*Frame) : 0.295
Stream size : 3.88 GiB (94%)
Writing library : core 75 r1251kMod e553a4c
Encoding settings : cabac=1 / ref=5 / deblock=1:-2:-2 / analyse=0x3:0x133 / me=umh / subme=9 / psy=1 / psy_rd=1.0:0.0 / mixed_ref=0 / me_range=32 / chroma_me=1 / trellis=2 / 8x8dct=1 / cqm=0 / deadzone=21,11 / chroma_qp_offset=-2 / threads=6 / nr=0 / decimate=1 / mbaff=0 / bframes=4 / b_pyramid=0 / b_adapt=2 / b_bias=0 / direct=1 / wpredb=1 / keyint=250 / keyint_min=25 / scenecut=40 / rc_lookahead=40 / rc=cbr / mbtree=1 / bitrate=11000 / ratetol=1.0 / qcomp=0.60 / qpmin=10 / qpmax=51 / qpstep=4 / vbv_maxrate=50000 / vbv_bufsize=50000 / ip_ratio=1.40 / aq=1:1.00
Language : English

Audio #1
ID : 2
Format : AC-3
Format/Info : Audio Coding 3
Mode extension : CM (complete main)
Codec ID : A_AC3
Duration : 52mn 54s
Bit rate mode : Constant
Bit rate : 192 Kbps
Channel(s) : 2 channels
Channel positions : Front: L R
Sampling rate : 48.0 KHz
Bit depth : 16 bits
Compression mode : Lossy
Stream size : 72.6 MiB (2%)
Language : Ukrainian

Audio #2
ID : 3
Format : AC-3
Format/Info : Audio Coding 3
Mode extension : CM (complete main)
Codec ID : A_AC3
Duration : 52mn 54s
Bit rate mode : Constant
Bit rate : 256 Kbps
Channel(s) : 2 channels
Channel positions : Front: L R
Sampling rate : 48.0 KHz
Bit depth : 16 bits
Compression mode : Lossy
Stream size : 96.9 MiB (2%)
Language : English

Text
ID : 4
Format : UTF-8
Codec ID : S_TEXT/UTF8
Codec ID/Info : UTF-8 Plain Text
Language : English

Menu
00:00:00.000 : en:Guy Fawkes Day
00:11:26.958 : en:Freddie's Story
00:17:12.416 : en:Collared
00:30:17.500 : en:Hindustan
00:38:36.125 : en:Teed Off
Скріншоти














Пуаро Агати Крісті (Сезон 2) / Agatha Christie: Poirot (Season 2) (1990) 1080p Ukr/Eng | sub Eng

Пуаро Агати Крісті (Сезон 2) / Agatha Christie: Poirot (Season 2) (1990) 1080p Ukr/Eng | sub Eng

Пуаро Агати Крісті (Сезони 1-13) / Agatha Christie: Poirot (Seasons 1-13) (1989-2013) 1080p Ukr/Eng | sub Eng

Тривалість: 1 серія: ~ 50 хвилин (цілком серій: 9)

Перелік серій
1. Небезпека в будинку на околиці ч.1 / Peril at End House (1990) p.1
2. Небезпека в будинку на околиці ч.2 / Peril at End House (1990) p.2
3. Дама під вуаллю / The Veiled Lady (1990)
4. Загублена копальня / The Lost Mine (1990)
5. Корнвельська таємниця / The Cornish Mystery (1990)
6. Зникнення містера Давенхайма / The Disappearance of Mr. Davenheim (1990)
7. Подвійний гріх / Double Sin (1990)
8. Авантюра з дешевою квартирою / The Adventure of the Cheap Flat (1990)
9. Викрадення Прем'єр-міністра / The Kidnapped Prime Minister (1990)
10. Пригода "Західної зірки" / The Adventure of the Western Star (1990)

Якість: 1080p
Відео:
кодек:
розмір кадру: 1440х1080
бітрейт: ~11 Мб/с

Аудіо # 1:
мова: українська
переклад: двоголосий закадровий
кодек: 2.0
бітрейт: 192 кб/с

Аудіо # 2:
мова: англійська
переклад: оригінал
кодек: 2.0
бітрейт: 256 кб/с

Субтитри:
мова: англійська
тип: програмні (м'які)
формат: *.srt
Info
General
Unique ID : 115741416703851499956012216485449855253 (0x5712FC6C0A7F1CF14A1E5C6381F47115)
Complete name : D:\Фільми\Poirot (1989-2013) [Season 1-13] [Ukr,Eng] 1080p [Hurtom]\Poirot (1990) [Season 2] [Ukr,Eng] 1080p [Hurtom]\Poirot (1990) [S02E04] [Ukr,Eng] 1080p [Hurtom].
Format :
Format version : Version 4 / Version 2
File size : 3.90 GiB
Duration : 49mn 57s
Overall bit rate : 11.2 Mbps
Encoded date : UTC 2018-11-25 17:10:32
Writing application : v21.0.0 ('Tardigrades Will Inherit The Earth') 32-bit
Writing library : libebml v1.3.5 + v1.4.8
DURATION : 00:49:57.696000000
NUMBER_OF_FRAMES : 93678
NUMBER_OF_BYTES : 71944704
_STATISTICS_WRITING_APP : v21.0.0 ('Tardigrades Will Inherit The Earth') 32-bit
_STATISTICS_WRITING_DATE_UTC : 2018-11-25 17:10:32
_STATISTICS_TAGS : BPS DURATION NUMBER_OF_FRAMES NUMBER_OF_BYTES

Video
ID : 1
Format : AVC
Format/Info : Advanced Video Codec
Format profile : [email protected]
Format settings, CABAC : Yes
Format settings, ReFrames : 5 frames
Codec ID : V_MPEG4/ISO/AVC
Duration : 49mn 57s
Bit rate : 11.0 Mbps
Width : 1 440 pixels
Height : 1 080 pixels
Display aspect ratio : 4:3
Frame rate : 24.000 fps
Color space : YUV
Chroma subsampling : 4:2:0
Bit depth : 8 bits
Scan type : Progressive
Bits/(Pixel*Frame) : 0.295
Stream size : 3.67 GiB (94%)
Writing library : core 75 r1251kMod e553a4c
Encoding settings : cabac=1 / ref=5 / deblock=1:-2:-2 / analyse=0x3:0x133 / me=umh / subme=9 / psy=1 / psy_rd=1.0:0.0 / mixed_ref=0 / me_range=32 / chroma_me=1 / trellis=2 / 8x8dct=1 / cqm=0 / deadzone=21,11 / chroma_qp_offset=-2 / threads=6 / nr=0 / decimate=1 / mbaff=0 / bframes=4 / b_pyramid=0 / b_adapt=2 / b_bias=0 / direct=1 / wpredb=1 / keyint=250 / keyint_min=25 / scenecut=40 / rc_lookahead=40 / rc=cbr / mbtree=1 / bitrate=11000 / ratetol=1.0 / qcomp=0.60 / qpmin=10 / qpmax=51 / qpstep=4 / vbv_maxrate=50000 / vbv_bufsize=50000 / ip_ratio=1.40 / aq=1:1.00
Language : English

Audio #1
ID : 2
Format : AC-3
Format/Info : Audio Coding 3
Mode extension : CM (complete main)
Codec ID : A_AC3
Duration : 49mn 57s
Bit rate mode : Constant
Bit rate : 192 Kbps
Channel(s) : 2 channels
Channel positions : Front: L R
Sampling rate : 48.0 KHz
Bit depth : 16 bits
Compression mode : Lossy
Stream size : 68.6 MiB (2%)
Language : Ukrainian

Audio #2
ID : 3
Format : AC-3
Format/Info : Audio Coding 3
Mode extension : CM (complete main)
Codec ID : A_AC3
Duration : 49mn 57s
Bit rate mode : Constant
Bit rate : 256 Kbps
Channel(s) : 2 channels
Channel positions : Front: L R
Sampling rate : 48.0 KHz
Bit depth : 16 bits
Compression mode : Lossy
Stream size : 91.5 MiB (2%)
Language : English

Text
ID : 4
Format : UTF-8
Codec ID : S_TEXT/UTF8
Codec ID/Info : UTF-8 Plain Text
Language : English

Menu
00:00:00.000 : en:Rainy Day
00:07:34.875 : en:Tragic Loss
00:15:42.750 : en:Office Visit
00:24:53.583 : en:Mr. Pengelley
00:36:29.583 : en:Confession
Скріншоти














Пуаро Агати Крісті (Сезон 3) / Agatha Christie: Poirot (Season 3) (1990-1991) 1080p Ukr/Eng | sub Eng

Пуаро Агати Крісті (Сезон 3) / Agatha Christie: Poirot (Season 3) (1990-1991) 1080p Ukr/Eng | sub Eng

Пуаро Агати Крісті (Сезони 1-13) / Agatha Christie: Poirot (Seasons 1-13) (1989-2013) 1080p Ukr/Eng | sub Eng

Тривалість: 1 серія: ~ 52 хвилини (цілком серій: 11)

Перелік серій
1. Загадкова справа у Стайзлі / The Mysterious Affair at Styles (1990)
2. Як росте твій сад? / How Does Your Garden Grow? (1991)
3. Пограбування на мільйон доларів / The Million Dollar Bond Robbery (1991)
4. Плімутський експрес / The Plymouth Express (1991)
5. Осине гніздо / Wasps' Nest (1991)
6. Трагедія в маєтку Марсден / The Tragedy at Marsdon Manor (1991)
7. Подвійний доказ / The Double Clue (1991)
8. Загадка іспанського ящика / The Mystery of the Spanish Chest (1991)
9. Викрадення королівського рубіну / The Theft of the Royal Ruby (1991)
10. Випадок на балу з нагоди дня перемоги / The Affair at the Victory Ball (1991)
11. Таємниця мисливської хатинки / The Mystery of Hunter's Lodge (1991)

Якість: 1080p
Відео:
кодек:
розмір кадру: 1440х1080
бітрейт: ~11 Мб/с

Аудіо # 1:
мова: українська
переклад: двоголосий закадровий
кодек: 2.0
бітрейт: 192 кб/с

Аудіо # 2:
мова: англійська
переклад: оригінал
кодек: 2.0
бітрейт: 192 кб/с

Субтитри:
мова: англійська
тип: програмні (м'які)
формат: *.srt
Info
General
Unique ID : 129375023428459767347016635754685589454 (0x6154B9218427A82ED44B1A20A986E7CE)
Complete name : D:\Фільми\Poirot (1989-2013) [Season 1-13] [Ukr,Eng] 1080p [Hurtom]\Poirot (1990-1991) [Season 3] [Ukr,Eng] 1080p [Hurtom]\Poirot (1991) [S03E05] [Ukr,Eng] 1080p [Hurtom].
Format :
Format version : Version 4 / Version 2
File size : 4.13 GiB
Duration : 53mn 0s
Overall bit rate : 11.2 Mbps
Encoded date : UTC 2018-11-30 18:38:00
Writing application : v21.0.0 ('Tardigrades Will Inherit The Earth') 32-bit
Writing library : libebml v1.3.5 + v1.4.8
DURATION : 00:53:00.000000000
NUMBER_OF_FRAMES : 99375
NUMBER_OF_BYTES : 76320000
_STATISTICS_WRITING_APP : v21.0.0 ('Tardigrades Will Inherit The Earth') 32-bit
_STATISTICS_WRITING_DATE_UTC : 2018-11-30 18:38:00
_STATISTICS_TAGS : BPS DURATION NUMBER_OF_FRAMES NUMBER_OF_BYTES
Attachment : Yes / Yes

Video
ID : 1
Format : AVC
Format/Info : Advanced Video Codec
Format profile : [email protected]
Format settings, CABAC : Yes
Format settings, ReFrames : 5 frames
Codec ID : V_MPEG4/ISO/AVC
Duration : 53mn 0s
Bit rate : 11.0 Mbps
Width : 1 440 pixels
Height : 1 080 pixels
Display aspect ratio : 4:3
Frame rate : 24.000 fps
Color space : YUV
Chroma subsampling : 4:2:0
Bit depth : 8 bits
Scan type : Progressive
Bits/(Pixel*Frame) : 0.295
Stream size : 3.91 GiB (95%)
Writing library : core 75 r1251kMod e553a4c
Encoding settings : cabac=1 / ref=5 / deblock=1:-2:-2 / analyse=0x3:0x133 / me=umh / subme=9 / psy=1 / psy_rd=1.0:0.0 / mixed_ref=0 / me_range=32 / chroma_me=1 / trellis=2 / 8x8dct=1 / cqm=0 / deadzone=21,11 / chroma_qp_offset=-2 / threads=6 / nr=0 / decimate=1 / mbaff=0 / bframes=4 / b_pyramid=0 / b_adapt=2 / b_bias=0 / direct=1 / wpredb=1 / keyint=250 / keyint_min=25 / scenecut=40 / rc_lookahead=40 / rc=cbr / mbtree=1 / bitrate=11000 / ratetol=1.0 / qcomp=0.60 / qpmin=10 / qpmax=51 / qpstep=4 / vbv_maxrate=50000 / vbv_bufsize=50000 / ip_ratio=1.40 / aq=1:1.00
Language : English

Audio #1
ID : 2
Format : AC-3
Format/Info : Audio Coding 3
Mode extension : CM (complete main)
Codec ID : A_AC3
Duration : 53mn 0s
Bit rate mode : Constant
Bit rate : 192 Kbps
Channel(s) : 2 channels
Channel positions : Front: L R
Sampling rate : 48.0 KHz
Bit depth : 16 bits
Compression mode : Lossy
Stream size : 72.8 MiB (2%)
Language : Ukrainian

Audio #2
ID : 3
Format : AC-3
Format/Info : Audio Coding 3
Mode extension : CM (complete main)
Codec ID : A_AC3
Duration : 53mn 0s
Bit rate mode : Constant
Bit rate : 192 Kbps
Channel(s) : 2 channels
Channel positions : Front: L R
Sampling rate : 48.0 KHz
Bit depth : 16 bits
Compression mode : Lossy
Stream size : 72.8 MiB (2%)
Language : English

Text
ID : 4
Format : UTF-8
Codec ID : S_TEXT/UTF8
Codec ID/Info : UTF-8 Plain Text
Language : English

Menu
00:00:00.000 : en:Internal Strife
00:13:26.750 : en:Developing Pain
00:24:56.125 : en:Desings on Love
00:31:22.000 : en:Face of Death
00:40:49.875 : en:Crystal Clear
Скріншоти














Пуаро Агати Крісті (Сезон 4) / Agatha Christie: Poirot (Season 4) (1992) 1080p Ukr/Eng | sub Eng

Пуаро Агати Крісті (Сезон 4) / Agatha Christie: Poirot (Season 4) (1992) 1080p Ukr/Eng | sub Eng

Пуаро Агати Крісті (Сезони 1-13) / Agatha Christie: Poirot (Seasons 1-13) (1989-2013) 1080p Ukr/Eng | sub Eng

Тривалість: 1 серія: ~ 1 год. 46 хвилин (цілком серій: 3)

Перелік серій
1. Убивства за алфавітом / The ABC Murders (1992)
2. Смерть у небі / Death in the Clouds (1992)
3. Раз, два, пряжка нова / One, Two, Buckle My Shoe (1992)

Якість: 1080p
Відео:
кодек:
розмір кадру: 1440х1080
бітрейт: ~11 Мб/с

Аудіо # 1:
мова: українська
переклад: двоголосий закадровий
кодек: 2.0
бітрейт: 192 кб/с

Аудіо # 2:
мова: англійська
переклад: оригінал
кодек: 2.0
бітрейт: 192 кб/с

Субтитри:
мова: англійська
тип: програмні (м'які)
формат: *.srt
Info
General
Unique ID : 133856678167076301246177566526235568745 (0x64B3DBC4F0ABA91D9F705F86D87D6A69)
Complete name : D:\Фільми\Poirot (1989-2013) [Season 1-13] [Ukr,Eng] 1080p [Hurtom]\Poirot (1992) [Season 4] [Ukr,Eng] 1080p [Hurtom]\Poirot (1992) [S04E02] [Ukr,Eng] 1080p [Hurtom].
Format :
Format version : Version 4 / Version 2
File size : 8.42 GiB
Duration : 1h 46mn
Overall bit rate : 11.3 Mbps
Encoded date : UTC 2018-11-30 23:18:55
Writing application : v21.0.0 ('Tardigrades Will Inherit The Earth') 32-bit
Writing library : libebml v1.3.5 + v1.4.8
DURATION : 01:46:45.984000000
NUMBER_OF_FRAMES : 200187
NUMBER_OF_BYTES : 153743616
_STATISTICS_WRITING_APP : v21.0.0 ('Tardigrades Will Inherit The Earth') 32-bit
_STATISTICS_WRITING_DATE_UTC : 2018-11-30 23:18:55
_STATISTICS_TAGS : BPS DURATION NUMBER_OF_FRAMES NUMBER_OF_BYTES

Video
ID : 1
Format : AVC
Format/Info : Advanced Video Codec
Format profile : [email protected]
Format settings, CABAC : Yes
Format settings, ReFrames : 5 frames
Codec ID : V_MPEG4/ISO/AVC
Duration : 1h 46mn
Bit rate : 11.0 Mbps
Width : 1 440 pixels
Height : 1 080 pixels
Display aspect ratio : 4:3
Frame rate : 24.000 fps
Color space : YUV
Chroma subsampling : 4:2:0
Bit depth : 8 bits
Scan type : Progressive
Bits/(Pixel*Frame) : 0.295
Stream size : 7.97 GiB (95%)
Writing library : core 75 r1251kMod e553a4c
Encoding settings : cabac=1 / ref=5 / deblock=1:-2:-2 / analyse=0x3:0x133 / me=umh / subme=9 / psy=1 / psy_rd=1.0:0.0 / mixed_ref=0 / me_range=32 / chroma_me=1 / trellis=2 / 8x8dct=1 / cqm=0 / deadzone=21,11 / chroma_qp_offset=-2 / threads=6 / nr=0 / decimate=1 / mbaff=0 / bframes=4 / b_pyramid=0 / b_adapt=2 / b_bias=0 / direct=1 / wpredb=1 / keyint=250 / keyint_min=25 / scenecut=40 / rc_lookahead=40 / rc=cbr / mbtree=1 / bitrate=11000 / ratetol=1.0 / qcomp=0.60 / qpmin=10 / qpmax=51 / qpstep=4 / vbv_maxrate=50000 / vbv_bufsize=50000 / ip_ratio=1.40 / aq=1:1.00
Language : English

Audio #1
ID : 2
Format : AC-3
Format/Info : Audio Coding 3
Mode extension : CM (complete main)
Codec ID : A_AC3
Duration : 1h 46mn
Bit rate mode : Constant
Bit rate : 192 Kbps
Channel(s) : 2 channels
Channel positions : Front: L R
Sampling rate : 48.0 KHz
Bit depth : 16 bits
Compression mode : Lossy
Stream size : 147 MiB (2%)
Language : Ukrainian

Audio #2
ID : 3
Format : AC-3
Format/Info : Audio Coding 3
Mode extension : CM (complete main)
Codec ID : A_AC3
Duration : 1h 46mn
Bit rate mode : Constant
Bit rate : 192 Kbps
Channel(s) : 2 channels
Channel positions : Front: L R
Sampling rate : 48.0 KHz
Bit depth : 16 bits
Compression mode : Lossy
Stream size : 147 MiB (2%)
Language : English

Text
ID : 4
Format : VobSub
Muxing mode : zlib
Codec ID : S_VOBSUB
Codec ID/Info : The same subtitle format used on DVDs
Language : English

Menu
00:00:00.000 : :Chapter 01
00:11:26.666 : :Chapter 02
00:21:11.666 : :Chapter 03
00:28:19.000 : :Chapter 04
00:42:13.041 : :Chapter 05
00:52:48.041 : :Chapter 06
00:59:56.208 : :Chapter 07
01:06:46.958 : :Chapter 08
01:15:10.500 : :Chapter 09
01:30:34.458 : :Chapter 10
01:46:45.750 : :Chapter 11
Скріншоти














Пуаро Агати Крісті (Сезон 5) / Agatha Christie: Poirot (Season 5) (1993) 1080p Ukr/Eng | sub Eng

Пуаро Агати Крісті (Сезон 5) / Agatha Christie: Poirot (Season 5) (1993) 1080p Ukr/Eng | sub Eng

Пуаро Агати Крісті (Сезони 1-13) / Agatha Christie: Poirot (Seasons 1-13) (1989-2013) 1080p Ukr/Eng | sub Eng

Тривалість: 1 серія: ~ 52 хвилини (цілком серій: 8)

Перелік серій
1. Прокляття єгипетської гробниці / The Adventure of the Egyptian Tomb (1993)
2. Невдаха / The Underdog (1993)
3. Жовті іриси / The Yellow Iris (1993)
4. Справа про зниклий заповіт / The Case of the Missing Will (1993)
5. Пригоди італійського аристократа / The Adventure of the Italian Nobleman (1993)
6. Коробка шоколадних цукерок / The Chocolate Box (1993)
7. Дзеркало мерця / Dead Man's Mirror (1993)
8. Крадіжка коштовностей в Гранд Метрополітен / Jewel Robbery at the Grand Metropolitan (1993)

Якість: 1080p
Відео:
кодек:
розмір кадру: 1440х1080
бітрейт: ~11 Мб/с

Аудіо # 1:
мова: українська
переклад: двоголосий закадровий
кодек: 2.0
бітрейт: 192 кб/с

Аудіо # 2:
мова: англійська
переклад: оригінал
кодек: 2.0
бітрейт: 256 кб/с

Субтитри:
мова: англійська
тип: програмні (м'які)
формат: *.srt
Info
General
Unique ID : 50729407328640627606295666337426808314 (0x262A20E2FC4D01728A6BB3FFA6F59DFA)
Complete name : D:\Фільми\Poirot (1989-2013) [Season 1-13] [Ukr,Eng] 1080p [Hurtom]\Poirot (1993) [Season 5] [Ukr,Eng] 1080p [Hurtom]\Poirot (1993) [S05E05] [Ukr,Eng] 1080p [Hurtom].
Format :
Format version : Version 4 / Version 2
File size : 4.19 GiB
Duration : 52mn 56s
Overall bit rate : 11.3 Mbps
Encoded date : UTC 2018-12-01 09:43:14
Writing application : v21.0.0 ('Tardigrades Will Inherit The Earth') 32-bit
Writing library : libebml v1.3.5 + v1.4.8
DURATION : 00:52:56.832000000
NUMBER_OF_FRAMES : 99276
NUMBER_OF_BYTES : 76243968
_STATISTICS_WRITING_APP : v21.0.0 ('Tardigrades Will Inherit The Earth') 32-bit
_STATISTICS_WRITING_DATE_UTC : 2018-12-01 09:43:14
_STATISTICS_TAGS : BPS DURATION NUMBER_OF_FRAMES NUMBER_OF_BYTES

Video
ID : 1
Format : AVC
Format/Info : Advanced Video Codec
Format profile : [email protected]
Format settings, CABAC : Yes
Format settings, ReFrames : 5 frames
Codec ID : V_MPEG4/ISO/AVC
Duration : 52mn 56s
Bit rate : 11.0 Mbps
Width : 1 440 pixels
Height : 1 080 pixels
Display aspect ratio : 4:3
Frame rate : 24.000 fps
Color space : YUV
Chroma subsampling : 4:2:0
Bit depth : 8 bits
Scan type : Progressive
Bits/(Pixel*Frame) : 0.295
Stream size : 3.94 GiB (94%)
Writing library : core 75 r1251kMod e553a4c
Encoding settings : cabac=1 / ref=5 / deblock=1:-2:-2 / analyse=0x3:0x133 / me=umh / subme=9 / psy=1 / psy_rd=1.0:0.0 / mixed_ref=0 / me_range=32 / chroma_me=1 / trellis=2 / 8x8dct=1 / cqm=0 / deadzone=21,11 / chroma_qp_offset=-2 / threads=6 / nr=0 / decimate=1 / mbaff=0 / bframes=4 / b_pyramid=0 / b_adapt=2 / b_bias=0 / direct=1 / wpredb=1 / keyint=250 / keyint_min=25 / scenecut=40 / rc_lookahead=40 / rc=cbr / mbtree=1 / bitrate=11000 / ratetol=1.0 / qcomp=0.60 / qpmin=10 / qpmax=51 / qpstep=4 / vbv_maxrate=50000 / vbv_bufsize=50000 / ip_ratio=1.40 / aq=1:1.00
Language : English

Audio #1
ID : 2
Format : AC-3
Format/Info : Audio Coding 3
Mode extension : CM (complete main)
Codec ID : A_AC3
Duration : 52mn 56s
Bit rate mode : Constant
Bit rate : 192 Kbps
Channel(s) : 2 channels
Channel positions : Front: L R
Sampling rate : 48.0 KHz
Bit depth : 16 bits
Compression mode : Lossy
Stream size : 72.7 MiB (2%)
Language : Ukrainian

Audio #2
ID : 3
Format : AC-3
Format/Info : Audio Coding 3
Mode extension : CM (complete main)
Codec ID : A_AC3
Duration : 52mn 56s
Bit rate mode : Constant
Bit rate : 256 Kbps
Channel(s) : 2 channels
Channel positions : Front: L R
Sampling rate : 48.0 KHz
Bit depth : 16 bits
Compression mode : Lossy
Stream size : 97.0 MiB (2%)
Language : English

Text
ID : 4
Format : VobSub
Muxing mode : zlib
Codec ID : S_VOBSUB
Codec ID/Info : The same subtitle format used on DVDs
Language : English

Menu
00:00:00.000 : :Chapter 01
00:10:51.500 : :Chapter 02
00:19:37.000 : :Chapter 03
00:30:04.875 : :Chapter 04
00:38:51.041 : :Chapter 05
00:52:56.583 : :Chapter 06
Скріншоти














Пуаро Агати Крісті (Сезон 6) / Agatha Christie: Poirot (Season 6) (1994-1996) 1080p Ukr/Eng | sub Eng

Пуаро Агати Крісті (Сезон 6) / Agatha Christie: Poirot (Season 6) (1994-1996) 1080p Ukr/Eng | sub Eng

Пуаро Агати Крісті (Сезони 1-13) / Agatha Christie: Poirot (Seasons 1-13) (1989-2013) 1080p Ukr/Eng | sub Eng

Тривалість: 1 серія: ~ 1 год. 47 хвилин (цілком серій: 4)

Перелік серій
1. Різдво Еркюля Пуаро / Hercule Poirot's Christmas (1994)
2. Рахівниця / Hickory Dickory Dock (1995)
3. Убивство на полі для гольфу / Murder on the Links (1996)
4. Дамб Вітнес / Dumb Witness (1996)

Якість: 1080p
Відео:
кодек:
розмір кадру: 1440х1080
бітрейт: ~11 Мб/с

Аудіо # 1:
мова: українська
переклад: двоголосий закадровий
кодек: 2.0
бітрейт: 192 кб/с

Аудіо # 2:
мова: англійська
переклад: оригінал
кодек: 2.0
бітрейт: 256 кб/с

Субтитри:
мова: англійська
тип: програмні (м'які)
формат: *.srt
Info
General
Unique ID : 137715351876479994413511774705024775611 (0x679B03124E4678953AF184374E9C35BB)
Complete name : D:\Фільми\Poirot (1989-2013) [Season 1-13] [Ukr,Eng] 1080p [Hurtom]\Poirot (1994-1996) [Season 6] [Ukr,Eng] 1080p [Hurtom]\Poirot (1995) [S06E02] [Ukr,Eng] 1080p [Hurtom].
Format :
Format version : Version 4 / Version 2
File size : 8.51 GiB
Duration : 1h 47mn
Overall bit rate : 11.4 Mbps
Encoded date : UTC 2018-12-01 11:05:11
Writing application : v21.0.0 ('Tardigrades Will Inherit The Earth') 32-bit
Writing library : libebml v1.3.5 + v1.4.8
DURATION : 01:47:01.312000000
NUMBER_OF_FRAMES : 200666
NUMBER_OF_BYTES : 154111488
_STATISTICS_WRITING_APP : v21.0.0 ('Tardigrades Will Inherit The Earth') 32-bit
_STATISTICS_WRITING_DATE_UTC : 2018-12-01 11:05:11
_STATISTICS_TAGS : BPS DURATION NUMBER_OF_FRAMES NUMBER_OF_BYTES

Video
ID : 1
Format : AVC
Format/Info : Advanced Video Codec
Format profile : [email protected]
Format settings, CABAC : Yes
Format settings, ReFrames : 5 frames
Codec ID : V_MPEG4/ISO/AVC
Duration : 1h 47mn
Bit rate : 11.0 Mbps
Width : 1 440 pixels
Height : 1 080 pixels
Display aspect ratio : 4:3
Frame rate : 24.000 fps
Color space : YUV
Chroma subsampling : 4:2:0
Bit depth : 8 bits
Scan type : Progressive
Bits/(Pixel*Frame) : 0.295
Stream size : 8.01 GiB (94%)
Writing library : core 75 r1251kMod e553a4c
Encoding settings : cabac=1 / ref=5 / deblock=1:-2:-2 / analyse=0x3:0x133 / me=umh / subme=9 / psy=1 / psy_rd=1.0:0.0 / mixed_ref=0 / me_range=32 / chroma_me=1 / trellis=2 / 8x8dct=1 / cqm=0 / deadzone=21,11 / chroma_qp_offset=-2 / threads=6 / nr=0 / decimate=1 / mbaff=0 / bframes=4 / b_pyramid=0 / b_adapt=2 / b_bias=0 / direct=1 / wpredb=1 / keyint=250 / keyint_min=25 / scenecut=40 / rc_lookahead=40 / rc=cbr / mbtree=1 / bitrate=11000 / ratetol=1.0 / qcomp=0.60 / qpmin=10 / qpmax=51 / qpstep=4 / vbv_maxrate=50000 / vbv_bufsize=50000 / ip_ratio=1.40 / aq=1:1.00
Language : English

Audio #1
ID : 2
Format : AC-3
Format/Info : Audio Coding 3
Mode extension : CM (complete main)
Codec ID : A_AC3
Duration : 1h 47mn
Bit rate mode : Constant
Bit rate : 192 Kbps
Channel(s) : 2 channels
Channel positions : Front: L R
Sampling rate : 48.0 KHz
Bit depth : 16 bits
Compression mode : Lossy
Stream size : 147 MiB (2%)
Language : Ukrainian

Audio #2
ID : 3
Format : AC-3
Format/Info : Audio Coding 3
Mode extension : CM (complete main)
Codec ID : A_AC3
Duration : 1h 47mn
Bit rate mode : Constant
Bit rate : 256 Kbps
Channel(s) : 2 channels
Channel positions : Front: L R
Sampling rate : 48.0 KHz
Bit depth : 16 bits
Compression mode : Lossy
Stream size : 196 MiB (2%)
Language : English

Text
ID : 4
Format : VobSub
Muxing mode : zlib
Codec ID : S_VOBSUB
Codec ID/Info : The same subtitle format used on DVDs
Language : English

Menu
00:00:00.000 : :Chapter 01
00:12:22.291 : :Chapter 02
00:23:53.375 : :Chapter 03
00:31:32.958 : :Chapter 04
00:44:25.750 : :Chapter 05
00:53:19.250 : :Chapter 06
01:01:49.375 : :Chapter 07
01:15:34.166 : :Chapter 08
01:24:40.583 : :Chapter 09
01:33:27.291 : :Chapter 10
Скріншоти














Пуаро Агати Крісті (Сезон 7) / Agatha Christie: Poirot (Season 7) (2000) 1080p Ukr/Eng | sub Eng

Пуаро Агати Крісті (Сезон 7) / Agatha Christie: Poirot (Season 7) (2000) 1080p Ukr/Eng | sub Eng

Пуаро Агати Крісті (Сезони 1-13) / Agatha Christie: Poirot (Seasons 1-13) (1989-2013) 1080p Ukr/Eng | sub Eng

Тривалість: 1 серія: ~ 1 год. 45 хвилин (цілком серій: 2)

Перелік серій
1. Вбивство Роджера Екройда / The Murder of Roger Ackroyd (2000)
2. Смерть Лорда Еджвора / Lord Edgware Dies (2000)

Якість: 1080p
Відео:
кодек:
розмір кадру: 1914x1074
бітрейт: ~13 Мб/с

Аудіо # 1:
мова: українська
переклад: двоголосий закадровий
кодек: 2.0
бітрейт: 192 кб/с

Аудіо # 2:
мова: англійська
переклад: оригінал
кодек: 2.0
бітрейт: 192 кб/с

Субтитри:
мова: англійська
тип: програмні (м'які)
формат: *.srt
Info
General
Unique ID : 4903937064007089823556479137813160365 (0x3B076C3B40EE171F03ADCD10560E1AD)
Complete name : D:\Фільми\Poirot (1989-2013) [Season 1-13] [Ukr,Eng] 1080p [Hurtom]\Poirot (2000) [Season 7] [Ukr,Eng] 1080p [Hurtom]\Poirot (2000) [S07E01] [Ukr,Eng] 1080p [Hurtom].
Format :
Format version : Version 4 / Version 2
File size : 10.1 GiB
Duration : 1h 46mn
Overall bit rate : 13.7 Mbps
Encoded date : UTC 2018-12-01 15:20:36
Writing application : v21.0.0 ('Tardigrades Will Inherit The Earth') 32-bit
Writing library : libebml v1.3.5 + v1.4.8
DURATION : 01:46:09.248000000
NUMBER_OF_FRAMES : 199039
NUMBER_OF_BYTES : 152861952
_STATISTICS_WRITING_APP : v21.0.0 ('Tardigrades Will Inherit The Earth') 32-bit
_STATISTICS_WRITING_DATE_UTC : 2018-12-01 15:20:36
_STATISTICS_TAGS : BPS DURATION NUMBER_OF_FRAMES NUMBER_OF_BYTES
Attachment : Yes / Yes

Video
ID : 1
Format : AVC
Format/Info : Advanced Video Codec
Format profile : [email protected]
Format settings, CABAC : Yes
Format settings, ReFrames : 4 frames
Codec ID : V_MPEG4/ISO/AVC
Duration : 1h 46mn
Bit rate : 13.0 Mbps
Width : 1 914 pixels
Height : 1 074 pixels
Display aspect ratio : 16:9
Frame rate : 23.976 fps
Color space : YUV
Chroma subsampling : 4:2:0
Bit depth : 8 bits
Scan type : Progressive
Bits/(Pixel*Frame) : 0.264
Stream size : 9.66 GiB (95%)
Writing library : core 142 r2409+42 04be48a tMod [[email protected]:2:0 X86_64]
Encoding settings : cabac=1 / ref=4 / deblock=1:-2:-2 / analyse=0x3:0x113 / me=umh / subme=11 / psy=1 / fade_compensate=0.00 / psy_rd=1.00:0.00 / mixed_ref=1 / me_range=48 / chroma_me=1 / trellis=2 / 8x8dct=1 / cqm=0 / deadzone=21,11 / fast_pskip=1 / chroma_qp_offset=-2 / threads=12 / lookahead_threads=2 / sliced_threads=0 / nr=0 / decimate=1 / interlaced=0 / bluray_compat=0 / constrained_intra=0 / fgo=0 / bframes=8 / b_pyramid=2 / b_adapt=2 / b_bias=0 / direct=1 / weightb=1 / open_gop=0 / weightp=2 / keyint=250 / keyint_min=23 / scenecut=40 / intra_refresh=0 / rc_lookahead=60 / rc=crf / mbtree=0 / crf=19.5000 / qcomp=0.70 / qpmin=0:0:0 / qpmax=69:69:69 / qpstep=4 / vbv_maxrate=62500 / vbv_bufsize=78125 / crf_max=0.0 / nal_hrd=none / filler=0 / ip_ratio=1.40 / pb_ratio=1.30 / aq=4:0.70 / aq-sensitivity=11.00 / aq-factor=1.00:1.00:1.00 / aq2=1:0.60 / aq2-sensitivity=9.00 / aq2-factor=1.00:1.00:1.00 / aq3=1:[0.60:0.60]:[0.60:0.60]:[0.60:0.60]:[0.60:0.60] / aq3-sensitivity=10.00 / aq3-factor=[1.00:1.00]:[1.00:1.00]:[1.00:1.00] / aq3-boundary=192:64:24
Language : English
Color primaries : BT.709-5, BT.1361, IEC 61966-2-4, SMPTE RP177
Transfer characteristics : BT.709-5, BT.1361
Matrix coefficients : BT.709-5, BT.1361, IEC 61966-2-4 709, SMPTE RP177

Audio #1
ID : 2
Format : AC-3
Format/Info : Audio Coding 3
Mode extension : CM (complete main)
Codec ID : A_AC3
Duration : 1h 46mn
Bit rate mode : Constant
Bit rate : 192 Kbps
Channel(s) : 2 channels
Channel positions : Front: L R
Sampling rate : 48.0 KHz
Bit depth : 16 bits
Compression mode : Lossy
Stream size : 146 MiB (1%)
Language : Ukrainian

Audio #2
ID : 3
Format : AC-3
Format/Info : Audio Coding 3
Mode extension : CM (complete main)
Codec ID : A_AC3
Duration : 1h 46mn
Bit rate mode : Constant
Bit rate : 192 Kbps
Channel(s) : 2 channels
Channel positions : Front: L R
Sampling rate : 48.0 KHz
Bit depth : 16 bits
Compression mode : Lossy
Stream size : 146 MiB (1%)
Language : English

Text
ID : 4
Format : UTF-8
Codec ID : S_TEXT/UTF8
Codec ID/Info : UTF-8 Plain Text
Language : English

Menu
00:00:00.000 : en:Murderer's Journal
00:10:16.282 : en:Dorothy Ferrars
00:19:05.602 : en:Dinner Party
00:29:00.488 : en:Local Police
00:37:22.823 : en:Old Friend
00:50:31.737 : en:Missing Money
01:01:07.205 : en:Poirot's Flat
01:10:57.461 : en:Flushed Out
01:18:09.226 : en:Pow-wow
01:28:06.864 : en:Theories
Скріншоти














Пуаро Агати Крісті (Сезон 8) / Agatha Christie: Poirot (Season 8) (2001-2002) 1080p Ukr/Eng | sub Eng

Пуаро Агати Крісті (Сезон 8) / Agatha Christie: Poirot (Season 8) (2001-2002) 1080p Ukr/Eng | sub Eng

Пуаро Агати Крісті (Сезони 1-13) / Agatha Christie: Poirot (Seasons 1-13) (1989-2013) 1080p Ukr/Eng | sub Eng

Тривалість: 1 серія: ~ 1 год. 43 хвилин (цілком серій: 2)

Перелік серій
1. Зло під сонцем / Evil Under the Sun (2001)
2. Вбивство у Месопотамії / Murder in Mesopotamia (2002)

Якість: 1080p
Відео:
кодек:
розмір кадру: 1914x1074
бітрейт: ~13 Мб/с

Аудіо # 1:
мова: українська
переклад: двоголосий закадровий
кодек: 2.0
бітрейт: 192 кб/с

Аудіо # 2:
мова: англійська
переклад: оригінал
кодек: 2.0
бітрейт: 192 кб/с

Субтитри:
мова: англійська
тип: програмні (м'які)
формат: *.srt
Info
General
Unique ID : 4107162128845467879103084935831079684 (0x31702BA2858FDC594C2307FC123CB04)
Complete name : D:\Фільми\Poirot (1989-2013) [Season 1-13] [Ukr,Eng] 1080p [Hurtom]\Poirot (2001-2002) [Season 8] [Ukr,Eng] 1080p [Hurtom]\Poirot (2002) [S08E02] [Ukr,Eng] 1080p [Hurtom].
Format :
Format version : Version 4 / Version 2
File size : 10.3 GiB
Duration : 1h 43mn
Overall bit rate : 14.3 Mbps
Encoded date : UTC 2018-12-01 22:35:25
Writing application : v21.0.0 ('Tardigrades Will Inherit The Earth') 32-bit
Writing library : libebml v1.3.5 + v1.4.8
DURATION : 01:43:20.448000000
NUMBER_OF_FRAMES : 193764
NUMBER_OF_BYTES : 148810752
_STATISTICS_WRITING_APP : v21.0.0 ('Tardigrades Will Inherit The Earth') 32-bit
_STATISTICS_WRITING_DATE_UTC : 2018-12-01 22:35:25
_STATISTICS_TAGS : BPS DURATION NUMBER_OF_FRAMES NUMBER_OF_BYTES
Attachment : Yes / Yes

Video
ID : 1
Format : AVC
Format/Info : Advanced Video Codec
Format profile : [email protected]
Format settings, CABAC : Yes
Format settings, ReFrames : 4 frames
Codec ID : V_MPEG4/ISO/AVC
Duration : 1h 43mn
Bit rate : 13.6 Mbps
Width : 1 914 pixels
Height : 1 074 pixels
Display aspect ratio : 16:9
Frame rate : 23.976 fps
Color space : YUV
Chroma subsampling : 4:2:0
Bit depth : 8 bits
Scan type : Progressive
Bits/(Pixel*Frame) : 0.277
Stream size : 9.84 GiB (95%)
Writing library : core 142 r2409+42 04be48a tMod [[email protected]:2:0 X86_64]
Encoding settings : cabac=1 / ref=4 / deblock=1:-2:-2 / analyse=0x3:0x113 / me=umh / subme=11 / psy=1 / fade_compensate=0.00 / psy_rd=1.00:0.00 / mixed_ref=1 / me_range=48 / chroma_me=1 / trellis=2 / 8x8dct=1 / cqm=0 / deadzone=21,11 / fast_pskip=1 / chroma_qp_offset=-2 / threads=12 / lookahead_threads=2 / sliced_threads=0 / nr=0 / decimate=1 / interlaced=0 / bluray_compat=0 / constrained_intra=0 / fgo=0 / bframes=8 / b_pyramid=2 / b_adapt=2 / b_bias=0 / direct=1 / weightb=1 / open_gop=0 / weightp=2 / keyint=250 / keyint_min=23 / scenecut=40 / intra_refresh=0 / rc_lookahead=60 / rc=crf / mbtree=0 / crf=19.5000 / qcomp=0.70 / qpmin=0:0:0 / qpmax=69:69:69 / qpstep=4 / vbv_maxrate=62500 / vbv_bufsize=78125 / crf_max=0.0 / nal_hrd=none / filler=0 / ip_ratio=1.40 / pb_ratio=1.30 / aq=4:0.70 / aq-sensitivity=11.00 / aq-factor=1.00:1.00:1.00 / aq2=1:0.60 / aq2-sensitivity=9.00 / aq2-factor=1.00:1.00:1.00 / aq3=1:[0.60:0.60]:[0.60:0.60]:[0.60:0.60]:[0.60:0.60] / aq3-sensitivity=10.00 / aq3-factor=[1.00:1.00]:[1.00:1.00]:[1.00:1.00] / aq3-boundary=192:64:24
Language : English
Color primaries : BT.709-5, BT.1361, IEC 61966-2-4, SMPTE RP177
Transfer characteristics : BT.709-5, BT.1361
Matrix coefficients : BT.709-5, BT.1361, IEC 61966-2-4 709, SMPTE RP177

Audio #1
ID : 2
Format : AC-3
Format/Info : Audio Coding 3
Mode extension : CM (complete main)
Codec ID : A_AC3
Duration : 1h 43mn
Bit rate mode : Constant
Bit rate : 192 Kbps
Channel(s) : 2 channels
Channel positions : Front: L R
Sampling rate : 48.0 KHz
Bit depth : 16 bits
Compression mode : Lossy
Stream size : 142 MiB (1%)
Language : Ukrainian

Audio #2
ID : 3
Format : AC-3
Format/Info : Audio Coding 3
Mode extension : CM (complete main)
Codec ID : A_AC3
Duration : 1h 43mn
Bit rate mode : Constant
Bit rate : 192 Kbps
Channel(s) : 2 channels
Channel positions : Front: L R
Sampling rate : 48.0 KHz
Bit depth : 16 bits
Compression mode : Lossy
Stream size : 142 MiB (1%)
Language : English

Text
ID : 4
Format : UTF-8
Codec ID : S_TEXT/UTF8
Codec ID/Info : UTF-8 Plain Text
Language : English

Menu
00:00:00.000 : en:Strangled
00:08:48.570 : en:Between Two Rivers
00:20:29.604 : en:Threatening Letters
00:30:29.286 : en:Dead
00:39:10.557 : en:Three Solutions
00:50:07.380 : en:Didn't Get On
00:59:49.795 : en:Missing Mercado
01:10:44.658 : en:Hydrochloric Acid
01:19:14.041 : en:Personality
01:33:58.258 : en:Bosner
Скріншоти














Пуаро Агати Крісті (Сезон 9) / Agatha Christie: Poirot (Season 9) (2003-2004) 1080p Ukr/Eng | sub Eng

Пуаро Агати Крісті (Сезон 9) / Agatha Christie: Poirot (Season 9) (2003-2004) 1080p Ukr/Eng | sub Eng

Пуаро Агати Крісті (Сезони 1-13) / Agatha Christie: Poirot (Seasons 1-13) (1989-2013) 1080p Ukr/Eng | sub Eng

Тривалість: 1 серія: ~ 1 год. 37 хвилин (цілком серій: 4)

Перелік серій
1. П'ять маленьких поросят / Five Little Pigs (2003)
2. Сумний кипарис / Sad Cypress (2003)
3. Смерть на Нілі / Death on the Nile (2004)
4. Діра / The Hollow (2004)

Якість: 1080p
Відео:
кодек:
розмір кадру: 1920x1080
бітрейт: ~14 Мб/с

Аудіо # 1:
мова: українська
переклад: двоголосий закадровий
кодек: 2.0
бітрейт: 192 кб/с

Аудіо # 2:
мова: англійська
переклад: оригінал
кодек: 2.0
бітрейт: 192 кб/с

Субтитри:
мова: англійська
тип: програмні (м'які)
формат: *.srt
Info
General
Unique ID : 24527820164014777778742352800748745958 (0x1273E2E6AED43F63B2E5CAEA422D34E6)
Complete name : D:\Фільми\Poirot (1989-2013) [Season 1-13] [Ukr,Eng] 1080p [Hurtom]\Poirot (2003-2004) [Season 9] [Ukr,Eng] 1080p [Hurtom]\Poirot (2003) [S09E02] [Ukr,Eng] 1080p [Hurtom].
Format :
Format version : Version 4 / Version 2
File size : 9.78 GiB
Duration : 1h 37mn
Overall bit rate : 14.4 Mbps
Encoded date : UTC 2018-12-02 09:50:16
Writing application : v21.0.0 ('Tardigrades Will Inherit The Earth') 32-bit
Writing library : libebml v1.3.5 + v1.4.8
DURATION : 01:37:11.360000000
NUMBER_OF_FRAMES : 182230
NUMBER_OF_BYTES : 139952640
_STATISTICS_WRITING_APP : v21.0.0 ('Tardigrades Will Inherit The Earth') 32-bit
_STATISTICS_WRITING_DATE_UTC : 2018-12-02 09:50:16
_STATISTICS_TAGS : BPS DURATION NUMBER_OF_FRAMES NUMBER_OF_BYTES
Attachment : Yes / Yes

Video
ID : 1
Format : AVC
Format/Info : Advanced Video Codec
Format profile : [email protected]
Format settings, CABAC : Yes
Format settings, ReFrames : 4 frames
Codec ID : V_MPEG4/ISO/AVC
Duration : 1h 37mn
Bit rate : 14.0 Mbps
Width : 1 920 pixels
Height : 1 080 pixels
Display aspect ratio : 16:9
Frame rate : 23.976 fps
Color space : YUV
Chroma subsampling : 4:2:0
Bit depth : 8 bits
Scan type : Progressive
Bits/(Pixel*Frame) : 0.282
Stream size : 9.32 GiB (95%)
Writing library : core 142 r2409+42 04be48a tMod [[email protected]:2:0 X86_64]
Encoding settings : cabac=1 / ref=4 / deblock=1:-2:-2 / analyse=0x3:0x113 / me=umh / subme=11 / psy=1 / fade_compensate=0.00 / psy_rd=1.15:0.00 / mixed_ref=1 / me_range=48 / chroma_me=1 / trellis=2 / 8x8dct=1 / cqm=0 / deadzone=21,11 / fast_pskip=0 / chroma_qp_offset=-2 / threads=12 / lookahead_threads=2 / sliced_threads=0 / nr=0 / decimate=1 / interlaced=0 / bluray_compat=0 / constrained_intra=0 / fgo=0 / bframes=8 / b_pyramid=2 / b_adapt=2 / b_bias=0 / direct=3 / weightb=1 / open_gop=0 / weightp=2 / keyint=250 / keyint_min=23 / scenecut=40 / intra_refresh=0 / rc_lookahead=120 / rc=2pass / mbtree=1 / bitrate=14000 / ratetol=1.0 / qcomp=0.80 / qpmin=0:0:0 / qpmax=69:69:69 / qpstep=4 / cplxblur=20.0 / qblur=0.5 / vbv_maxrate=62500 / vbv_bufsize=78125 / nal_hrd=none / filler=0 / ip_ratio=1.40 / aq=4:0.70 / aq-sensitivity=11.00 / aq-factor=1.00:1.00:1.00 / aq2=1:0.60 / aq2-sensitivity=9.00 / aq2-factor=1.00:1.00:1.00 / aq3=1:[0.60:0.60]:[0.60:0.60]:[0.60:0.60]:[0.60:0.60] / aq3-sensitivity=10.00 / aq3-factor=[1.00:1.00]:[1.00:1.00]:[1.00:1.00] / aq3-boundary=192:64:24
Language : English
Color primaries : BT.709-5, BT.1361, IEC 61966-2-4, SMPTE RP177
Transfer characteristics : BT.709-5, BT.1361
Matrix coefficients : BT.709-5, BT.1361, IEC 61966-2-4 709, SMPTE RP177

Audio #1
ID : 2
Format : AC-3
Format/Info : Audio Coding 3
Mode extension : CM (complete main)
Codec ID : A_AC3
Duration : 1h 37mn
Bit rate mode : Constant
Bit rate : 192 Kbps
Channel(s) : 2 channels
Channel positions : Front: L R
Sampling rate : 48.0 KHz
Bit depth : 16 bits
Compression mode : Lossy
Stream size : 134 MiB (1%)
Language : Ukrainian

Audio #2
ID : 3
Format : AC-3
Format/Info : Audio Coding 3
Mode extension : CM (complete main)
Codec ID : A_AC3
Duration : 1h 37mn
Bit rate mode : Constant
Bit rate : 192 Kbps
Channel(s) : 2 channels
Channel positions : Front: L R
Sampling rate : 48.0 KHz
Bit depth : 16 bits
Compression mode : Lossy
Stream size : 134 MiB (1%)
Language : English

Text
ID : 4
Format : UTF-8
Codec ID : S_TEXT/UTF8
Codec ID/Info : UTF-8 Plain Text
Language : English

Menu
00:00:00.000 : en:Happy Beginning
00:11:20.138 : en:Play Detective
00:20:33.108 : en:Another Turn
00:29:25.556 : en:Back to Hunterbury
00:39:37.751 : en:Wish She Was Dead
00:50:36.367 : en:Poisoned
01:00:43.641 : en:Exhumation
01:08:40.409 : en:Something Crooked
01:19:24.010 : en:Nothing Is What It Seems
01:26:47.328 : en:A Cup of Tea
Скріншоти











Пуаро Агати Крісті (Сезон 10) / Agatha Christie: Poirot (Season 10) (2005-2006) 1080p Ukr/Eng | sub Eng

Пуаро Агати Крісті (Сезон 10) / Agatha Christie: Poirot (Season 10) (2005-2006) 1080p Ukr/Eng | sub Eng

Пуаро Агати Крісті (Сезони 1-13) / Agatha Christie: Poirot (Seasons 1-13) (1989-2013) 1080p Ukr/Eng | sub Eng

Тривалість: 1 серія: ~ 1 год. 36 хвилин (цілком серій: 4)

Перелік серій
1. Загадка "Блакитного поїзда" / The Mystery of the Blue Train (2005)
2. Карти на столі / Cards on the Table (2006)
3. Після похорону / After the Funeral (2006)
4. Берег удачі / Taken at the Flood (2006)

Якість: 1080p
Відео:
кодек:
розмір кадру: 1920x1080
бітрейт: ~14 Мб/с

Аудіо # 1:
мова: українська
переклад: двоголосий закадровий
кодек: 2.0
бітрейт: 192 кб/с

Аудіо # 2:
мова: англійська
переклад: оригінал
кодек: 2.0
бітрейт: 192 кб/с

Субтитри:
мова: англійська
тип: програмні (м'які)
формат: *.srt
Info
General
Unique ID : 61326281587194053422578610076857149991 (0x2E2303201B7EA3AEE69B1C51DE802A27)
Complete name : D:\Фільми\Poirot (1989-2013) [Season 1-13] [Ukr,Eng] 1080p [Hurtom]\Poirot (2005-2006) [Season 10] [Ukr,Eng] 1080p [Hurtom]\Poirot (2006) [S10E03] [Ukr,Eng] 1080p [Hurtom].
Format :
Format version : Version 4 / Version 2
File size : 9.77 GiB
Duration : 1h 37mn
Overall bit rate : 14.4 Mbps
Encoded date : UTC 2018-12-02 17:40:15
Writing application : v21.0.0 ('Tardigrades Will Inherit The Earth') 32-bit
Writing library : libebml v1.3.5 + v1.4.8
DURATION : 01:36:59.488000000
NUMBER_OF_FRAMES : 181859
NUMBER_OF_BYTES : 139667712
_STATISTICS_WRITING_APP : v21.0.0 ('Tardigrades Will Inherit The Earth') 32-bit
_STATISTICS_WRITING_DATE_UTC : 2018-12-02 17:40:15
_STATISTICS_TAGS : BPS DURATION NUMBER_OF_FRAMES NUMBER_OF_BYTES
Attachment : Yes

Video
ID : 1
Format : AVC
Format/Info : Advanced Video Codec
Format profile : [email protected]
Format settings, CABAC : Yes
Format settings, ReFrames : 4 frames
Codec ID : V_MPEG4/ISO/AVC
Duration : 1h 37mn
Bit rate : 14.0 Mbps
Width : 1 920 pixels
Height : 1 080 pixels
Display aspect ratio : 16:9
Frame rate : 23.976 fps
Color space : YUV
Chroma subsampling : 4:2:0
Bit depth : 8 bits
Scan type : Progressive
Bits/(Pixel*Frame) : 0.282
Stream size : 9.31 GiB (95%)
Writing library : core 142 r2431+42 c69a006 tMod [[email protected]:2:0 X86_64]
Encoding settings : cabac=1 / ref=4 / deblock=1:-2:-2 / analyse=0x3:0x133 / me=umh / subme=11 / psy=1 / fade_compensate=0.00 / psy_rd=1.00:0.00 / mixed_ref=1 / me_range=32 / chroma_me=1 / trellis=2 / 8x8dct=1 / cqm=0 / deadzone=21,11 / fast_pskip=0 / chroma_qp_offset=-2 / threads=12 / lookahead_threads=2 / sliced_threads=0 / nr=0 / decimate=1 / interlaced=0 / bluray_compat=0 / constrained_intra=0 / fgo=0 / bframes=7 / b_pyramid=2 / b_adapt=2 / b_bias=0 / direct=3 / weightb=1 / open_gop=0 / weightp=2 / keyint=250 / keyint_min=23 / scenecut=40 / intra_refresh=0 / rc_lookahead=60 / rc=2pass / mbtree=0 / bitrate=14000 / ratetol=1.0 / qcomp=0.60 / qpmin=0:0:0 / qpmax=69:69:69 / qpstep=4 / cplxblur=20.0 / qblur=0.5 / vbv_maxrate=62500 / vbv_bufsize=78125 / nal_hrd=none / filler=0 / ip_ratio=1.40 / pb_ratio=1.30 / aq=4:0.70 / aq-sensitivity=11.00 / aq-factor=1.00:1.00:1.00 / aq2=1:0.60 / aq2-sensitivity=9.00 / aq2-factor=1.00:1.00:1.00 / aq3=1:[0.60:0.60]:[0.60:0.60]:[0.60:0.60]:[0.60:0.60] / aq3-sensitivity=10.00 / aq3-factor=[1.00:1.00]:[1.00:1.00]:[1.00:1.00] / aq3-boundary=192:64:24
Language : English
Color primaries : BT.709-5, BT.1361, IEC 61966-2-4, SMPTE RP177
Transfer characteristics : BT.709-5, BT.1361
Matrix coefficients : BT.709-5, BT.1361, IEC 61966-2-4 709, SMPTE RP177

Audio #1
ID : 2
Format : AC-3
Format/Info : Audio Coding 3
Mode extension : CM (complete main)
Codec ID : A_AC3
Duration : 1h 37mn
Bit rate mode : Constant
Bit rate : 192 Kbps
Channel(s) : 2 channels
Channel positions : Front: L R
Sampling rate : 48.0 KHz
Bit depth : 16 bits
Compression mode : Lossy
Stream size : 133 MiB (1%)
Language : Ukrainian

Audio #2
ID : 3
Format : AC-3
Format/Info : Audio Coding 3
Mode extension : CM (complete main)
Codec ID : A_AC3
Duration : 1h 37mn
Bit rate mode : Constant
Bit rate : 192 Kbps
Channel(s) : 2 channels
Channel positions : Front: L R
Sampling rate : 48.0 KHz
Bit depth : 16 bits
Compression mode : Lossy
Stream size : 133 MiB (1%)
Language : English

Text
ID : 4
Format : UTF-8
Codec ID : S_TEXT/UTF8
Codec ID/Info : UTF-8 Plain Text
Language : English

Menu
00:00:01.002 : en:Back to Enderby
00:08:11.658 : en:Murdered
00:19:43.933 : en:Whereabouts
00:30:25.032 : en:All Lying
00:40:03.527 : en:Value the Paintings
00:47:31.975 : en:Poisoned
00:59:16.095 : en:Choosing Keepsakes
01:09:08.145 : en:Something Wrong
01:19:03.114 : en:Solve the Riddle
01:29:52.012 : en:Secret Painting
Скріншоти














Пуаро Агати Крісті (Сезон 11) / Agatha Christie: Poirot (Season 11) (2008-2009) 1080p Ukr/Eng | sub Eng

Пуаро Агати Крісті (Сезон 11) / Agatha Christie: Poirot (Season 11) (2008-2009) 1080p Ukr/Eng | sub Eng

Пуаро Агати Крісті (Сезони 1-13) / Agatha Christie: Poirot (Seasons 1-13) (1989-2013) 1080p Ukr/Eng | sub Eng

Тривалість: 1 серія: ~ 1 год. 37 хвилин (цілком серій: 4)

Перелік серій
1. Смерть місіс Макгінті / Mrs McGinty's Dead (2008)
2. Кіт серед голубів / Cat Among the Pigeons (2008)
3. Третя дівчина / Third Girl (2008)
4. Побачення зі смертю / Appointment with Death (2009)

Якість: 1080p
Відео:
кодек:
розмір кадру: 1916x1080
бітрейт: ~16 Мб/с

Аудіо # 1:
мова: українська
переклад: двоголосий закадровий
кодек: 2.0
бітрейт: 192 кб/с

Аудіо # 2:
мова: англійська
переклад: оригінал
кодек: 2.0
бітрейт: 192 кб/с

Субтитри:
мова: англійська
тип: програмні (м'які)
формат: *.srt
Info
General
Unique ID : 150413787308007064216021249067108267212 (0x7128A4469DC21A5A69897462242BF4CC)
Complete name : D:\Фільми\Poirot (1989-2013) [Season 1-13] [Ukr,Eng] 1080p [Hurtom]\Poirot (2008-2009) [Season 11] [Ukr,Eng] 1080p [Hurtom]\Poirot (2008) [S11E02] [Ukr,Eng] 1080p [Hurtom].
Format :
Format version : Version 4 / Version 2
File size : 11.1 GiB
Duration : 1h 37mn
Overall bit rate : 16.4 Mbps
Encoded date : UTC 2018-12-03 12:00:38
Writing application : v21.0.0 ('Tardigrades Will Inherit The Earth') 32-bit
Writing library : libebml v1.3.5 + v1.4.8
DURATION : 01:37:14.816000000
NUMBER_OF_FRAMES : 182338
NUMBER_OF_BYTES : 140035584
_STATISTICS_WRITING_APP : v21.0.0 ('Tardigrades Will Inherit The Earth') 32-bit
_STATISTICS_WRITING_DATE_UTC : 2018-12-03 12:00:38
_STATISTICS_TAGS : BPS DURATION NUMBER_OF_FRAMES NUMBER_OF_BYTES
Attachment : Yes

Video
ID : 1
Format : AVC
Format/Info : Advanced Video Codec
Format profile : [email protected]
Format settings, CABAC : Yes
Format settings, ReFrames : 4 frames
Codec ID : V_MPEG4/ISO/AVC
Duration : 1h 37mn
Bit rate : 16.0 Mbps
Width : 1 916 pixels
Height : 1 080 pixels
Display aspect ratio : 16:9
Frame rate : 23.976 fps
Color space : YUV
Chroma subsampling : 4:2:0
Bit depth : 8 bits
Scan type : Progressive
Bits/(Pixel*Frame) : 0.322
Stream size : 10.6 GiB (96%)
Title : Release for HDCLUB
Writing library : core 144 r2525kMod 40bb568
Encoding settings : cabac=1 / ref=4 / deblock=1:-3:-3 / analyse=0x3:0x133 / me=umh / subme=11 / psy=1 / fade_compensate=0.00 / psy_rd=1.00:0.00 / mixed_ref=1 / me_range=32 / chroma_me=1 / trellis=2 / 8x8dct=1 / cqm=0 / deadzone=21,11 / fast_pskip=0 / chroma_qp_offset=-2 / threads=12 / lookahead_threads=3 / sliced_threads=0 / nr=0 / decimate=1 / interlaced=0 / bluray_compat=0 / constrained_intra=0 / fgo=0 / bframes=10 / b_pyramid=2 / b_adapt=2 / b_bias=0 / direct=3 / weightb=1 / open_gop=0 / weightp=2 / keyint=250 / keyint_min=23 / scenecut=40 / intra_refresh=0 / rc_lookahead=120 / rc=2pass / mbtree=1 / bitrate=16000 / ratetol=1.0 / qcomp=0.80 / qpmin=0 / qpmax=69 / qpstep=4 / cplxblur=20.0 / qblur=0.5 / vbv_maxrate=62500 / vbv_bufsize=78125 / nal_hrd=none / filler=0 / ip_ratio=1.40 / aq=1:0.70
Language : English
Color primaries : BT.709-5, BT.1361, IEC 61966-2-4, SMPTE RP177
Transfer characteristics : BT.709-5, BT.1361
Matrix coefficients : BT.709-5, BT.1361, IEC 61966-2-4 709, SMPTE RP177

Audio #1
ID : 2
Format : AC-3
Format/Info : Audio Coding 3
Mode extension : CM (complete main)
Codec ID : A_AC3
Duration : 1h 37mn
Bit rate mode : Constant
Bit rate : 192 Kbps
Channel(s) : 2 channels
Channel positions : Front: L R
Sampling rate : 48.0 KHz
Bit depth : 16 bits
Compression mode : Lossy
Stream size : 134 MiB (1%)
Language : Ukrainian

Audio #2
ID : 3
Format : AC-3
Format/Info : Audio Coding 3
Mode extension : CM (complete main)
Codec ID : A_AC3
Duration : 1h 37mn
Bit rate mode : Constant
Bit rate : 192 Kbps
Channel(s) : 2 channels
Channel positions : Front: L R
Sampling rate : 48.0 KHz
Bit depth : 16 bits
Compression mode : Lossy
Stream size : 134 MiB (1%)
Language : English

Text
ID : 4
Format : UTF-8
Codec ID : S_TEXT/UTF8
Codec ID/Info : UTF-8 Plain Text
Language : English

Menu
00:00:00.000 : en:First Day of School
00:09:54.469 : en:Retiring
00:20:47.121 : en:Not Quite Right
00:30:58.940 : en:Meant for Shaista?
00:39:04.425 : en:Staff Secrets
00:52:25.267 : en:Hidden Treasure
01:00:34.339 : en:Coming Round
01:11:23.529 : en:Case Solved
01:21:10.574 : en:Angel Revealed
01:28:49.324 : en:Snapped
Скріншоти














Пуаро Агати Крісті (Сезон 12) / Agatha Christie: Poirot (Season 12) (2010-2011) 1080p Ukr/Eng | sub Eng

Пуаро Агати Крісті (Сезон 12) / Agatha Christie: Poirot (Season 12) (2010-2011) 1080p Ukr/Eng | sub Eng

Пуаро Агати Крісті (Сезони 1-13) / Agatha Christie: Poirot (Seasons 1-13) (1989-2013) 1080p Ukr/Eng | sub Eng

Тривалість: 1 серія: ~ 1 год. 32 хвилин (цілком серій: 4)

Перелік серій
1. Годинники / The Clocks (2011)
2. Трагедія у трьох діях / Three Act Tragedy (2010)
3. Вечірка на Хеллоуїн / Hallowe'en Party (2010)
4. Вбивство у східному експресі / Murder on the Orient Express (2010)

Якість: 1080p
Відео:
кодек:
розмір кадру: 1920x1080
бітрейт: ~16 Мб/с

Аудіо # 1:
мова: українська
переклад: двоголосий закадровий
кодек: 2.0
бітрейт: 192 кб/с

Аудіо # 2:
мова: англійська
переклад: оригінал
кодек: 2.0
бітрейт: 192 кб/с

Субтитри:
мова: англійська
тип: програмні (м'які)
формат: *.srt
Info
General
Unique ID : 57116440047250367276508109552064536350 (0x2AF839E9942CD6FA551A84407EFA1F1E)
Complete name : D:\Фільми\Poirot (1989-2013) [Season 1-13] [Ukr,Eng] 1080p [Hurtom]\Poirot (2010-2011) [Season 12] [Ukr,Eng] 1080p [Hurtom]\Poirot (2010) [S12E03] [Ukr,Eng] 1080p [Hurtom].
Format :
Format version : Version 4 / Version 2
File size : 9.51 GiB
Duration : 1h 32mn
Overall bit rate : 14.7 Mbps
Encoded date : UTC 2018-12-03 20:44:25
Writing application : v21.0.0 ('Tardigrades Will Inherit The Earth') 32-bit
Writing library : libebml v1.3.5 + v1.4.8
DURATION : 01:32:30.752000000
NUMBER_OF_FRAMES : 173461
NUMBER_OF_BYTES : 133218048
_STATISTICS_WRITING_APP : v21.0.0 ('Tardigrades Will Inherit The Earth') 32-bit
_STATISTICS_WRITING_DATE_UTC : 2018-12-03 20:44:25
_STATISTICS_TAGS : BPS DURATION NUMBER_OF_FRAMES NUMBER_OF_BYTES
Attachment : Yes / Yes

Video
ID : 1
Format : AVC
Format/Info : Advanced Video Codec
Format profile : [email protected]
Format settings, CABAC : Yes
Format settings, ReFrames : 4 frames
Codec ID : V_MPEG4/ISO/AVC
Duration : 1h 32mn
Bit rate : 14.0 Mbps
Width : 1 920 pixels
Height : 1 080 pixels
Display aspect ratio : 16:9
Frame rate : 23.976 fps
Color space : YUV
Chroma subsampling : 4:2:0
Bit depth : 8 bits
Scan type : Progressive
Bits/(Pixel*Frame) : 0.282
Stream size : 9.07 GiB (95%)
Writing library : core 142 r2431+42 c69a006 tMod [[email protected]:2:0 X86_64]
Encoding settings : cabac=1 / ref=4 / deblock=1:-2:-2 / analyse=0x3:0x133 / me=umh / subme=11 / psy=1 / fade_compensate=0.00 / psy_rd=1.00:0.00 / mixed_ref=1 / me_range=32 / chroma_me=1 / trellis=2 / 8x8dct=1 / cqm=0 / deadzone=21,11 / fast_pskip=1 / chroma_qp_offset=-2 / threads=12 / lookahead_threads=2 / sliced_threads=0 / nr=0 / decimate=1 / interlaced=0 / bluray_compat=0 / constrained_intra=0 / fgo=0 / bframes=7 / b_pyramid=2 / b_adapt=2 / b_bias=0 / direct=1 / weightb=1 / open_gop=0 / weightp=2 / keyint=250 / keyint_min=23 / scenecut=40 / intra_refresh=0 / rc_lookahead=60 / rc=crf / mbtree=0 / crf=20.0000 / qcomp=0.60 / qpmin=0:0:0 / qpmax=69:69:69 / qpstep=4 / vbv_maxrate=62500 / vbv_bufsize=78125 / crf_max=0.0 / nal_hrd=none / filler=0 / ip_ratio=1.40 / pb_ratio=1.30 / aq=4:0.80 / aq-sensitivity=11.00 / aq-factor=1.00:1.00:1.00 / aq2=1:0.60 / aq2-sensitivity=9.00 / aq2-factor=1.00:1.00:1.00 / aq3=1:[0.60:0.60]:[0.60:0.60]:[0.60:0.60]:[0.60:0.60] / aq3-sensitivity=10.00 / aq3-factor=[1.00:1.00]:[1.00:1.00]:[1.00:1.00] / aq3-boundary=192:64:24
Language : English
Color primaries : BT.709-5, BT.1361, IEC 61966-2-4, SMPTE RP177
Transfer characteristics : BT.709-5, BT.1361
Matrix coefficients : BT.709-5, BT.1361, IEC 61966-2-4 709, SMPTE RP177

Audio #1
ID : 2
Format : AC-3
Format/Info : Audio Coding 3
Mode extension : CM (complete main)
Codec ID : A_AC3
Duration : 1h 32mn
Bit rate mode : Constant
Bit rate : 192 Kbps
Channel(s) : 2 channels
Channel positions : Front: L R
Sampling rate : 48.0 KHz
Bit depth : 16 bits
Compression mode : Lossy
Stream size : 127 MiB (1%)
Language : Ukrainian

Audio #2
ID : 3
Format : AC-3
Format/Info : Audio Coding 3
Mode extension : CM (complete main)
Codec ID : A_AC3
Duration : 1h 32mn
Bit rate mode : Constant
Bit rate : 192 Kbps
Channel(s) : 2 channels
Channel positions : Front: L R
Sampling rate : 48.0 KHz
Bit depth : 16 bits
Compression mode : Lossy
Stream size : 127 MiB (1%)
Language : English

Text
ID : 4
Format : UTF-8
Codec ID : S_TEXT/UTF8
Codec ID/Info : UTF-8 Plain Text
Language : English

Menu
00:00:00.000 : en:I Saw a Murder Once
00:09:35.408 : en:To Woodleigh Common
00:16:25.275 : en:Poirot's Methods
00:22:49.785 : en:There Possibles
00:28:47.725 : en:After Her Death
00:38:07.285 : en:Losing Loved Ones
00:42:47.982 : en:A Meal Most Uncommon
00:48:56.099 : en:During the Party
00:55:53.141 : en:The Codicil
01:04:51.304 : en:What She Saw
01:15:09.129 : en:A Hallowe'en Story
01:29:05.381 : en:In the Garden
Скріншоти














Пуаро Агати Крісті (Сезон 13) / Agatha Christie: Poirot (Season 13) (2013) 1080p Ukr/Eng | sub Eng

Пуаро Агати Крісті (Сезон 13) / Agatha Christie: Poirot (Season 13) (2013) 1080p Ukr/Eng | sub Eng

Пуаро Агати Крісті (Сезони 1-13) / Agatha Christie: Poirot (Seasons 1-13) (1989-2013) 1080p Ukr/Eng | sub Eng

Тривалість: 1 серія: ~ 1 год. 30 хвилин (цілком серій: 5)

Перелік серій
1. Слони не забувають / Elephants Can Remember (2013)
2. Велика четвірка / The Big Four (2013)
3. Дурість мерця / Dead Man's Folly (2013)
4. Подвиги Геракла / The Labours of Hercules (2013)
4. Завіса. Остання справа Пуаро / Curtain: Poirot's Last Case (2013)

Якість: 1080p
Відео:
кодек:
розмір кадру: 1920x1080
бітрейт: ~16 Мб/с

Аудіо # 1:
мова: українська
переклад: двоголосий закадровий
кодек: 2.0
бітрейт: 192 кб/с

Аудіо # 2:
мова: англійська
переклад: оригінал
кодек: 2.0
бітрейт: 192 кб/с

Субтитри:
мова: англійська
тип: програмні (м'які)
формат: *.srt
Info
Unique ID : 189443080485853922888617511196591420147 (0x8E8568FF5BDD2BEDEC728A78C9C872F3)
Complete name : D:\Фільми\Poirot (1989-2013) [Season 1-13] [Ukr,Eng] 1080p [Hurtom]\Poirot (2013) [Season 13] [Ukr,Eng] 1080p [Hurtom]\Poirot (2013) [S13E03] [Ukr,Eng] 1080p [Hurtom].
Format :
Format version : Version 4 / Version 2
File size : 5.33 GiB
Duration : 1h 28mn
Overall bit rate : 8 602 Kbps
Encoded date : UTC 2018-12-02 22:00:06
Writing application : v21.0.0 ('Tardigrades Will Inherit The Earth') 32-bit
Writing library : libebml v1.3.5 + v1.4.8
DURATION : 01:28:40.000000000
NUMBER_OF_FRAMES : 166250
NUMBER_OF_BYTES : 127680000
_STATISTICS_WRITING_APP : v21.0.0 ('Tardigrades Will Inherit The Earth') 32-bit
_STATISTICS_WRITING_DATE_UTC : 2018-12-02 22:00:06
_STATISTICS_TAGS : BPS DURATION NUMBER_OF_FRAMES NUMBER_OF_BYTES

Video
ID : 1
Format : AVC
Format/Info : Advanced Video Codec
Format profile : [email protected]
Format settings, CABAC : Yes
Format settings, ReFrames : 4 frames
Codec ID : V_MPEG4/ISO/AVC
Duration : 1h 28mn
Bit rate : 8 047 Kbps
Width : 1 920 pixels
Height : 1 080 pixels
Display aspect ratio : 16:9
Frame rate : 25.000 fps
Color space : YUV
Chroma subsampling : 4:2:0
Bit depth : 8 bits
Scan type : Progressive
Bits/(Pixel*Frame) : 0.155
Stream size : 4.98 GiB (94%)
Writing library : core 138 r2358 9e941d1
Encoding settings : cabac=1 / ref=4 / deblock=1:-2:-2 / analyse=0x3:0x133 / me=esa / subme=11 / psy=1 / psy_rd=1.00:0.10 / mixed_ref=1 / me_range=32 / chroma_me=1 / trellis=2 / 8x8dct=1 / cqm=0 / deadzone=21,11 / fast_pskip=0 / chroma_qp_offset=-3 / threads=16 / lookahead_threads=2 / sliced_threads=0 / nr=0 / decimate=1 / interlaced=0 / bluray_compat=0 / constrained_intra=0 / bframes=8 / b_pyramid=2 / b_adapt=2 / b_bias=0 / direct=3 / weightb=1 / open_gop=0 / weightp=2 / keyint=250 / keyint_min=25 / scenecut=40 / intra_refresh=0 / rc_lookahead=60 / rc=crf / mbtree=1 / crf=18.0 / qcomp=0.60 / qpmin=0 / qpmax=69 / qpstep=4 / vbv_maxrate=62500 / vbv_bufsize=78125 / crf_max=0.0 / nal_hrd=none / ip_ratio=1.40 / aq=1:1.00
Language : English
DURATION : 01:28:39.760000000
NUMBER_OF_FRAMES : 132994
NUMBER_OF_BYTES : 5451488945
_STATISTICS_WRITING_APP : v21.0.0 ('Tardigrades Will Inherit The Earth') 32-bit
_STATISTICS_WRITING_DATE_UTC : 2018-12-02 22:00:06
_STATISTICS_TAGS : BPS DURATION NUMBER_OF_FRAMES NUMBER_OF_BYTES

Audio #1
ID : 2
Format : AC-3
Format/Info : Audio Coding 3
Mode extension : CM (complete main)
Codec ID : A_AC3
Duration : 1h 28mn
Bit rate mode : Constant
Bit rate : 192 Kbps
Channel(s) : 2 channels
Channel positions : Front: L R
Sampling rate : 48.0 KHz
Bit depth : 16 bits
Compression mode : Lossy
Stream size : 122 MiB (2%)
Language : Ukrainian

Audio #2
ID : 3
Format : AC-3
Format/Info : Audio Coding 3
Mode extension : CM (complete main)
Codec ID : A_AC3
Duration : 1h 28mn
Bit rate mode : Constant
Bit rate : 192 Kbps
Channel(s) : 2 channels
Channel positions : Front: L R
Sampling rate : 48.0 KHz
Bit depth : 16 bits
Compression mode : Lossy
Stream size : 122 MiB (2%)
Language : English

Text
ID : 4
Format : PGS
Muxing mode : zlib
Codec ID : S_HDMV/PGS
Codec ID/Info : The same subtitle format used on BDs/HD-DVDs
Language : English

Menu
00:00:00.000 : en:00:00:00.000
00:07:18.960 : en:00:07:18.960
00:16:20.800 : en:00:16:20.800
00:22:58.360 : en:00:22:58.360
00:29:05.320 : en:00:29:05.320
00:37:11.240 : en:00:37:11.240
00:44:47.280 : en:00:44:47.280
00:55:32.840 : en:00:55:32.840
01:02:17.520 : en:01:02:17.520
01:10:59.200 : en:01:10:59.200
01:19:40.240 : en:01:19:40.240
01:23:58.480 : en:01:23:58.480
Скріншоти














Джерело: &
За українські доріжки щиро вдячний пану slavik_v_z
Особиста оцінка: для мене особисто - це, напевно, найкращий серіал: він захоплює раз і назавжди, повторний перегляд не набридає - завжди побачиш щось нове та неповторне! Останні п'ять хвилин заключної серії дванадцятого сезону "Вбивство у "Східному експресі" неймовірно вразили! Браво Девід Суше!!!


Золотий реліз (завантажене не впливає на рейтинг)
 Трекер:    Зареєстрований   

Завантажити / скачати серіал українською



відео для новачків



 Зареєстрований:   2018-12-04 15:16
 Розмір:   471.11 GB 
 Оцінка серіалу:   10/10 (Голосів: 26)
   
Сашко_Панса 
Частий відвідувач


З нами з: 10.12.16
Востаннє: 24.10.20
Повідомлень: 27

2018-12-08 21:30  
Щойно показували "Вбивство у Східному Експресі" по ТБ! Дякую за можливість передивитися в гарній якості та українською! Кожна серія з Девідом Суше - шедевр!
Kamper 
Свій


З нами з: 21.01.13
Востаннє: 30.11.20
Повідомлень: 87

2019-05-22 21:50  
Авжеж, раз і назавжди. Цей серіал як насіння, ніколи не набридає, щоразу як траплається на телевізорі - дивлюсь його незалежно від того початок, або кінець... Суше забезпечив більшу половину успіху, іншого Пуаро вже й не існує...
P_AL 
Новенький


З нами з: 02.10.13
Востаннє: 23.03.20
Повідомлень: 3

2019-08-08 20:55  
Вітаю! Я поясніть будь -ласка - скачав торент серіалу в якості НД, скачую серії , запускаю.... а фільм не дубльований. Це варіант в НД "Пуаро" не дубльований, чи я щось зробив не так коли скачував? Підскажіть будь-ласка.
igor911 
Модератор відео


З нами з: 18.01.08
Востаннє: 01.12.20
Повідомлень: 15083

2019-08-08 21:17  
P_AL, тут немає дубляжу, є українське двоголосе закадрове озвучення. Якщо в тебе вмикається з англійською доріжкою - перемкни на українську в меню програвача.
P_AL 
Новенький


З нами з: 02.10.13
Востаннє: 23.03.20
Повідомлень: 3

2019-08-10 15:40  
igor911
Дякую! Я дивлюсь на телевізорі Самсунг ЛЕД з перших (покопаюсь в налаштуваннях). Дійсно перші рази здається було українською ( на компі здається) коли почав дивитись - англійська. Налаштування програвача в якому роділі? чи наприклад який програвач, і який там розділ ? Дякую!

igor911 
Модератор відео


З нами з: 18.01.08
Востаннє: 01.12.20
Повідомлень: 15083

2019-08-10 15:50  
P_AL написано:
Я дивлюсь на телевізорі Самсунг

тоді скористайся пультом

Додано через 2 хвилини 21 секунду:

кнопка Tools - Audio - вибери іншу доріжку

P_AL 
Новенький


З нами з: 02.10.13
Востаннє: 23.03.20
Повідомлень: 3

2019-08-10 16:01  
igor911
Дякую! з кмр плеєром розібрався )))). З Телевізором пізніше, напевно там буде довше - само по собі там меню з азіатскою логістикою ))) та і позначки на пульт і стерлись. П.С. Пуаро передивляюсь в напевно в 5 раз Цей раз уже вирішив в кращій якості спробувати. До речі "легша версія" працює як на компі так і на ТВ без регулювання, а ця Вважча... Розберемся ))))

Ваш часовий пояс: GMT + 2 Години

Нова тема   Відповісти