Теорія великого вибуху (Сезон 3) / The Big Bang Theory (Season 3) (2009) 1080p 2xUkr/Eng | Sub Eng

Нові коментарі

Нова тема   Відповісти
Автор Повідомлення
Argentum 
Поважний учасник


З нами з: 25.09.11
Востаннє: 26.03.19
Повідомлень: 179

2018-12-04 13:22  
Теорія великого вибуху (Сезон 3) / The Big Bang Theory (Season 3) (2009) 1080p 2xUkr/Eng | Sub Eng


Теорія великого вибуху (Сезон 3) / The Big Bang Theory (Season 3) (2009) 1080p 2xUkr/Eng | Sub Eng


Жанр: комедія
Країна: США



Кінокомпанія: Chuck Lorre Productions, Warner Brothers Television
Режисер: Джеймс Барроус, Марк Цендровський
Актори: Джоні Ґалецкі, Джим Парсонс, Кейлі Куоко, Саймон Гелберґ, Кунал Найар

Сюжет:
Леонард і Шелдон — блискучі фізики, розумники, що знаються на тому, як "працює всесвіт". Але геніальність ані трішечки не допомагає їм у спілкуванні з людьми, особливо жінками. Шелдон взагалі вважає, що чоловіки та жінки належать до різних біологічних видів. Але для Леонарда все змінюється з появою нової сусідки — білявки Пенні.

Друзі геніїв не менш дивакуваті. Воловіц живе зі своєю мамою та стверджує, що насправді це вона з ним живе. Вдає з себе дамського улюбленця, систематично застосовуючи сумнівні поради по знайомству з дівчатами. Раджеш Кутрапалі приймає ліки для подолання патологічної скромності, але все одно втрачає дар мови при появі жінок.

Персонажі серіала відрізняються неабиякими розумовими здібностями, мають свої "фішки" та звички. Коло друзів поступово змінюється, а життя підкидає все більше теорем і парадоксів...


Тривалість: 1 серія: 22:00 (цілком серій: 23)
Перелік серій
3x01. The Electric Can Opener Fluctuation
3x02. The Jiminy Conjecture
3x03. The Gothowitz Deviation
3x04. The Pirate Solution
3x05. The Creepy Candy Coating Corollary
3x06. The Cornhusker Vortex
3x07. The Guitarist Amplification
3x08. The Adhesive Duck Deficiency
3x09. The Vengeance Formulation
3x10. The Gorilla Experiment
3x11. The Maternal Congruence
3x12. The Psychic Vortex
3x13. The Bozeman Reaction
3x14. The Einstein Approximation
3x15. The Large Hadron Collision
3x16. The Excelsior Acquisition
3x17. The Precious Fragmentation
3x18. The Pants Alternative
3x19. The Wheaton Recurrence
3x20. The Spaghetti Catalyst
3x21. The Plimpton Stimulation
3x22. The Staircase Implementation
3x23. The Lunar Excitation
Якість:
Відео:
кодек:
розмір кадру: 1920 х 1080
бітрейт: 11000 кб/с

Аудіо # 1:
мова: українська
переклад: багатоголосий закадровий
кодек: 2.0
бітрейт: 192 кб/с

Аудіо # 2:
мова: українська
переклад: багатоголосий закадровий
кодек: 2.0
бітрейт: 192 кб/с

Аудіо # 3:
мова: англійська
переклад: оригінал
кодек: 5.1
бітрейт: 640 кб/с

Субтитри:
мова: англійська
тип: програмні (м'які)
формат: *.srt
Info
General
Unique ID : 227415764133305635971355780506626851283 (0xAB16AED8E4429DE77EB26FF5D3AC81D3)
Complete name : The Big Bang Theory. S03E01 (2009) [Ukr,Eng] 1080p [Hurtom].
Format :
Format version : Version 4
File size : 1.81 GiB
Duration : 21 min 35 s
Overall bit rate : 12.0 Mb/s
Movie name : 3x01. The Electric Can Opener Fluctuation
Encoded date : UTC 2018-12-04 10:54:31
Writing application : v29.0.0 ('Like It Or Not') 64-bit
Writing library : libebml v1.3.6 + v1.4.9

Video
ID : 1
Format : AVC
Format/Info : Advanced Video Codec
Format profile : [email protected]
Format settings : CABAC / 4 Ref Frames
Format settings, CABAC : Yes
Format settings, ReFrames : 4 frames
Codec ID : V_MPEG4/ISO/AVC
Duration : 21 min 35 s
Bit rate : 11.0 Mb/s
Width : 1 920 pixels
Height : 1 080 pixels
Display aspect ratio : 16:9
Frame rate mode : Constant
Frame rate : 23.976 (24000/1001) FPS
Color space : YUV
Chroma subsampling : 4:2:0
Bit depth : 8 bits
Scan type : Progressive
Bits/(Pixel*Frame) : 0.221
Stream size : 1.66 GiB (91%)
Title : AVC 1920*1080 @ 11 Mbps
Writing library : core 152 r2854 e9a5903
Encoding settings : cabac=1 / ref=4 / deblock=1:-3:-3 / analyse=0x3:0x133 / me=umh / subme=11 / psy=1 / psy_rd=1,00:0,15 / mixed_ref=1 / me_range=48 / chroma_me=1 / trellis=2 / 8x8dct=1 / cqm=0 / deadzone=21,11 / fast_pskip=0 / chroma_qp_offset=-3 / threads=12 / lookahead_threads=2 / sliced_threads=0 / nr=0 / decimate=1 / interlaced=0 / bluray_compat=0 / constrained_intra=0 / bframes=8 / b_pyramid=2 / b_adapt=2 / b_bias=0 / direct=3 / weightb=1 / open_gop=0 / weightp=2 / keyint=240 / keyint_min=24 / scenecut=40 / intra_refresh=0 / rc_lookahead=60 / rc=2pass / mbtree=0 / bitrate=11000 / ratetol=1,0 / qcomp=0,60 / qpmin=0 / qpmax=69 / qpstep=4 / cplxblur=20,0 / qblur=0,5 / vbv_maxrate=62500 / vbv_bufsize=78125 / nal_hrd=none / filler=0 / ip_ratio=1,40 / pb_ratio=1,30 / aq=1:1,00
Language : Multiple languages
Default : Yes
Forced : Yes
Color range : Limited
Color primaries : BT.709
Transfer characteristics : BT.709
Matrix coefficients : BT.709

Audio #1
ID : 2
Format : AC-3
Format/Info : Audio Coding 3
Commercial name : Dolby Digital
Codec ID : A_AC3
Duration : 21 min 35 s
Bit rate mode : Constant
Bit rate : 192 kb/s
Channel(s) : 2 channels
Channel layout : L R
Sampling rate : 48.0 kHz
Frame rate : 31.250 FPS (1536 SPF)
Bit depth : 16 bits
Compression mode : Lossy
Stream size : 29.6 MiB (2%)
Title : 2.0 @ 192 Kbps # Paramount COMEDY
Language : Ukrainian
Service kind : Complete Main
Default : Yes
Forced : Yes

Audio #2
ID : 3
Format : AC-3
Format/Info : Audio Coding 3
Commercial name : Dolby Digital
Codec ID : A_AC3
Duration : 21 min 35 s
Bit rate mode : Constant
Bit rate : 192 kb/s
Channel(s) : 2 channels
Channel layout : L R
Sampling rate : 48.0 kHz
Frame rate : 31.250 FPS (1536 SPF)
Bit depth : 16 bits
Compression mode : Lossy
Stream size : 29.6 MiB (2%)
Title : 2.0 @ 192 Kbps # MTV
Language : Ukrainian
Service kind : Complete Main
Default : No
Forced : No

Audio #3
ID : 4
Format : AC-3
Format/Info : Audio Coding 3
Commercial name : Dolby Digital
Codec ID : A_AC3
Duration : 21 min 35 s
Bit rate mode : Constant
Bit rate : 640 kb/s
Channel(s) : 6 channels
Channel layout : L R C LFE Ls Rs
Sampling rate : 48.0 kHz
Frame rate : 31.250 FPS (1536 SPF)
Bit depth : 16 bits
Compression mode : Lossy
Stream size : 98.8 MiB (5%)
Title : 5.1 @ 640 Kbps
Language : English
Service kind : Complete Main
Default : No
Forced : No

Text
ID : 5
Format : UTF-8
Codec ID : S_TEXT/UTF8
Codec ID/Info : UTF-8 Plain Text
Duration : 21 min 31 s
Bit rate : 87 b/s
Count of elements : 342
Stream size : 13.8 KiB (0%)
Title : English
Language : Engl
Скріншоти







Джерело:
Особиста оцінка: 10 - без зайвих вагань рекомендую всім!



Не забуваємо тиснути "Дякую"!


Срібний реліз (на рейтинг впливає 50% завантаженого)
 Трекер:    Зареєстрований   

Завантажити / скачати серіал українською



відео для новачків



 Зареєстрований:   2018-12-05 13:57
 Розмір:   39.71 GB 
 Оцінка серіалу:   10/10 (Голосів: 6)
   
Ваш часовий пояс: GMT + 2 Години

Нова тема   Відповісти