Потяг смерті (Detonator) / Death Train (1993) 1080p Ukr/Eng | Sub Eng

Нові коментарі

Нова тема   Відповісти
Автор Повідомлення
Anonymous 







2018-12-04 08:58  
Потяг смерті / Detonator / Death Train (1993) 1080p Ukr/Eng | Sub Eng

Потяг смерті (Detonator) / Death Train (1993) 1080p Ukr/Eng | Sub Eng


Жанр: бойовик, трилер
Країна: Словенія, США, Велика Британія



Кінокомпанія: Yorkshire International Films Ltd., J&M Entertainment, British Lion Film Corporation
Режисер: Девід Джексон
Актори: Пірс Броснан, Петрік Стюарт, Александра Пол, Тед Лівайн, Крістофер Лі, Джон Ебіньєрі

Сюжет:
За романом Алістера Макліна. Радянський генерал і німецький вчений підпільним чином виготовили дві атомні бомби, які були поміщені на викрадений поїзд із заручниками і відправлені в південному напрямку до Саддама Хуссейна. Щоб зупинити цей "поїзд смерті", спецагенство під егідою ООН відправляє на цю операцію елітний підрозділ бойовиків.


Тривалість: 01:38:24
Якість:
Відео:
кодек:
розмір кадру: 1432х1080
бітрейт: 9 725 кб/с

Аудіо # 1:
мова: українська
переклад: двоголосий закадровий ,
кодек: 2.0
бітрейт: 192 кб/с

Аудіо # 2:
мова: англійська
переклад: оригінал
кодек: 5.1
бітрейт: 448 кб/с

Субтитри:
мова: англійська
тип: програмні (м'які)
формат: *.srt
Info
General
Unique ID : 217981468322729134717136967782234772615 (0xA3FDB426C2737BD781CCC5A1899AD487)
Format :
Format version : Version 4 / Version 2
File size : 7.13 GiB
Duration : 1 h 38 min
Overall bit rate : 10.4 Mb/s
Encoded date : UTC 2018-12-04 05:50:47
Writing application : v6.1.0 ('Old Devil') built on Mar 4 2013 09:10:42
Writing library : libebml v1.3.0 + v1.4.0

Video
ID : 1
Format : AVC
Format/Info : Advanced Video Codec
Format profile : [email protected]
Format settings : CABAC / 5 Ref Frames
Format settings, CABAC : Yes
Format settings, ReFrames : 5 frames
Codec ID : V_MPEG4/ISO/AVC
Duration : 1 h 38 min
Bit rate : 9 520 kb/s
Width : 1 432 pixels
Height : 1 080 pixels
Display aspect ratio : 4:3
Frame rate mode : Constant
Frame rate : 23.976 (24000/1001) FPS
Color space : YUV
Chroma subsampling : 4:2:0
Bit depth : 8 bits
Scan type : Progressive
Bits/(Pixel*Frame) : 0.257
Stream size : 6.54 GiB (92%)
Writing library : core 155 r2901 7d0ff22
Encoding settings : cabac=1 / ref=5 / deblock=1:-3:-3 / analyse=0x3:0x133 / me=umh / subme=10 / psy=1 / psy_rd=1.00:0.00 / mixed_ref=1 / me_range=32 / chroma_me=1 / trellis=2 / 8x8dct=1 / cqm=0 / deadzone=21,11 / fast_pskip=0 / chroma_qp_offset=-2 / threads=30 / lookahead_threads=7 / sliced_threads=0 / nr=0 / decimate=0 / interlaced=0 / bluray_compat=0 / constrained_intra=0 / bframes=16 / b_pyramid=2 / b_adapt=2 / b_bias=0 / direct=3 / weightb=1 / open_gop=0 / weightp=2 / keyint=240 / keyint_min=24 / scenecut=40 / intra_refresh=0 / rc_lookahead=60 / rc=crf / mbtree=0 / crf=18.2 / qcomp=0.60 / qpmin=0 / qpmax=69 / qpstep=4 / vbv_maxrate=62500 / vbv_bufsize=78125 / crf_max=0.0 / nal_hrd=none / filler=0 / ip_ratio=1.40 / pb_ratio=1.30 / aq=2:1.00
Default : Yes
Forced : No
Color range : Limited
Color primaries : BT.709
Transfer characteristics : BT.709
Matrix coefficients : BT.709
Statistics Tags Issue : v28.2.0 ('The Awakening') 64-bit 2018-12-02 18:14:34 / v6.1.0 ('Old Devil') built on Mar 4 2013 09:10:42 2018-12-04 05:50:47
FromStats_BitRate : 9724697
FromStats_Duration : 01:38:24.232000000
FromStats_FrameCount : 141560
FromStats_StreamSize : 7177108955

Audio #1
ID : 2
Format : AC-3
Format/Info : Audio Coding 3
Codec ID : A_AC3
Duration : 1 h 38 min
Bit rate mode : Constant
Bit rate : 192 kb/s
Channel(s) : 2 channels
Channel positions : Front: L R
Sampling rate : 48.0 kHz
Frame rate : 31.250 FPS (1536 SPF)
Bit depth : 16 bits
Compression mode : Lossy
Stream size : 135 MiB (2%)
Title : UKR (ТРК "Україна", НЛО-ТБ)
Language : Ukrainian
Service kind : Complete Main
Default : Yes
Forced : Yes

Audio #2
ID : 3
Format : AC-3
Format/Info : Audio Coding 3
Codec ID : A_AC3
Duration : 1 h 38 min
Bit rate mode : Constant
Bit rate : 448 kb/s
Channel(s) : 6 channels
Channel positions : Front: L C R, Side: L R, LFE
Sampling rate : 48.0 kHz
Frame rate : 31.250 FPS (1536 SPF)
Bit depth : 16 bits
Compression mode : Lossy
Stream size : 315 MiB (4%)
Language : English
Service kind : Complete Main
Default : No
Forced : No
Statistics Tags Issue : v28.2.0 ('The Awakening') 64-bit 2018-12-02 18:14:34 / v6.1.0 ('Old Devil') built on Mar 4 2013 09:10:42 2018-12-04 05:50:47
FromStats_BitRate : 448000
FromStats_Duration : 01:38:24.256000000
FromStats_FrameCount : 184508
FromStats_StreamSize : 330638336

Text
ID : 4
Format : UTF-8
Codec ID : S_TEXT/UTF8
Codec ID/Info : UTF-8 Plain Text
Language : English
Default : Yes
Forced : No
Statistics Tags Issue : v28.2.0 ('The Awakening') 64-bit 2018-12-02 18:14:34 / v6.1.0 ('Old Devil') built on Mar 4 2013 09:10:42 2018-12-04 05:50:47
FromStats_BitRate : 52
FromStats_Duration : 01:34:22.250000000
FromStats_FrameCount : 1605
FromStats_StreamSize : 37333

Menu
00:00:00.000 : :Chapter 1
00:00:01.084 : :Chapter 2
00:10:01.059 : :Chapter 3
00:20:01.575 : :Chapter 4
00:30:01.425 : :Chapter 5
00:40:02.901 : :Chapter 6
00:50:02.708 : :Chapter 7
01:00:03.558 : :Chapter 8
01:10:04.450 : :Chapter 9
01:20:04.758 : :Chapter 10
01:30:05.859 : :Chapter 11
Скріншоти








За українську доріжку подяка п.: РОМЕО, Arsenfpu
Особиста подяка пану denixx за надану матеріальну допомогу на підтримку цього і майбутніх релізів.
Джерело:


Срібний реліз (на рейтинг впливає 50% завантаженого)
 Трекер:    Зареєстрований   

Завантажити / скачати фільм українською



відео для новачків



 Зареєстрований:   2018-12-04 08:58
 Розмір:   7.13 GB 
 Оцінка фільму:   9.5/10 (Голосів: 6)
   
Інші релізи
   Потяг смерті (Detonator) / Death Train (1993) Arsenfpu  2 / 0   1.23 GB   2015-12-23 23:48 
Ваш часовий пояс: GMT + 2 Години

Нова тема   Відповісти