Ти не ти / You're Not You (2014) 720p 2xUkr/Eng | Sub Eng

Нові коментарі

Нова тема   Відповісти
Автор Повідомлення
Anonymous 







2018-12-03 17:38  
Ти не ти / You're Not You (2014) 720p 2xUkr/Eng | Sub Eng

Ти не ти / You're Not You (2014) 720p 2xUkr/Eng | Sub Eng


Жанр: драма
Країна: США



Кінокомпанія: Daryl Prince Productions, 2S Films, DiNovi Pictures
Режисер: Джордж С. Волф
Актори: Гіларі Свонк, Еммі Россум, Джош Дюамель, Стефані Беатріз, Джейсон Ріттер, Джуліан МакМехон, Елі Лартер, Андреа Севадж та інші

Сюжет:
Драма зосереджена на невиліковно хворій жінці та безтурботній молодій дівчині, яка стає її опікуном.


Тривалість: 01:42:21
Якість: 720p
Відео:
кодек:
розмір кадру: 1280x688
бітрейт: 4608 кб/с

Аудіо # 1:
мова: українська
переклад: багатоголосий закадровий
кодек: 2.0
бітрейт: 192 кб/с

Аудіо # 2:
мова: українська
переклад: багатоголосий закадровий
кодек: 2.0
бітрейт: 192 кб/с

Аудіо # 3:
мова: англійська
переклад: оригінал
кодек: 5.1
бітрейт: 1509 кб/с

Субтитри:
мова: англійська
тип: програмні (м'які)
формат: *.srt
Info
General
Unique ID : 189351658728846570889792644674871303107 (0x8E73CD8E8F1B27F7A63916B01F531BC3)
Format :
Format version : Version 4 / Version 2
File size : 4.65 GiB
Duration : 1 h 42 min
Overall bit rate : 6 500 kb/s
Encoded date : UTC 2018-12-03 14:34:15
Writing application : v6.1.0 ('Old Devil') built on Mar 4 2013 09:10:42
Writing library : libebml v1.3.0 + v1.4.0

Video
ID : 1
Format : AVC
Format/Info : Advanced Video Codec
Format profile : [email protected]
Format settings : CABAC / 5 Ref Frames
Format settings, CABAC : Yes
Format settings, ReFrames : 5 frames
Codec ID : V_MPEG4/ISO/AVC
Duration : 1 h 42 min
Bit rate : 4 608 kb/s
Width : 1 280 pixels
Height : 688 pixels
Display aspect ratio : 1.85:1
Frame rate mode : Constant
Frame rate : 24.000 FPS
Color space : YUV
Chroma subsampling : 4:2:0
Bit depth : 8 bits
Scan type : Progressive
Bits/(Pixel*Frame) : 0.218
Stream size : 3.20 GiB (69%)
Writing library : core 146 r2538 121396c
Encoding settings : cabac=1 / ref=5 / deblock=1:-3:-3 / analyse=0x3:0x113 / me=umh / subme=8 / psy=1 / psy_rd=1.00:0.00 / mixed_ref=1 / me_range=16 / chroma_me=1 / trellis=1 / 8x8dct=1 / cqm=0 / deadzone=21,11 / fast_pskip=1 / chroma_qp_offset=-2 / threads=12 / lookahead_threads=2 / sliced_threads=0 / nr=0 / decimate=1 / interlaced=0 / bluray_compat=0 / constrained_intra=0 / bframes=3 / b_pyramid=2 / b_adapt=2 / b_bias=0 / direct=3 / weightb=1 / open_gop=0 / weightp=2 / keyint=240 / keyint_min=24 / scenecut=40 / intra_refresh=0 / rc_lookahead=50 / rc=2pass / mbtree=1 / bitrate=4608 / ratetol=1.0 / qcomp=0.60 / qpmin=0 / qpmax=69 / qpstep=4 / cplxblur=20.0 / qblur=0.5 / ip_ratio=1.40 / aq=1:1.00
Language : English
Default : Yes
Forced : No

Audio #1
ID : 2
Format : AC-3
Format/Info : Audio Coding 3
Codec ID : A_AC3
Duration : 1 h 42 min
Bit rate mode : Constant
Bit rate : 192 kb/s
Channel(s) : 2 channels
Channel positions : Front: L R
Sampling rate : 48.0 kHz
Frame rate : 31.250 FPS (1536 SPF)
Bit depth : 16 bits
Compression mode : Lossy
Stream size : 141 MiB (3%)
Title : UKR (Cine+)
Language : Ukrainian
Service kind : Complete Main
Default : Yes
Forced : Yes

Audio #2
ID : 3
Format : AC-3
Format/Info : Audio Coding 3
Codec ID : A_AC3
Duration : 1 h 42 min
Bit rate mode : Constant
Bit rate : 192 kb/s
Channel(s) : 2 channels
Channel positions : Front: L R
Sampling rate : 48.0 kHz
Frame rate : 31.250 FPS (1536 SPF)
Bit depth : 16 bits
Compression mode : Lossy
Stream size : 141 MiB (3%)
Title : UKR (Inter)
Language : Ukrainian
Service kind : Complete Main
Default : No
Forced : No

Audio #3
ID : 4
Format :
Format/Info : Digital Theater Systems
Codec ID : A_DTS
Duration : 1 h 42 min
Bit rate mode : Constant
Bit rate : 1 509 kb/s
Channel(s) : 6 channels
Channel positions : Front: L C R, Side: L R, LFE
Sampling rate : 48.0 kHz
Frame rate : 93.750 FPS (512 SPF)
Bit depth : 24 bits
Compression mode : Lossy
Stream size : 1.08 GiB (23%)
Language : English
Default : No
Forced : No

Text
ID : 5
Format : UTF-8
Codec ID : S_TEXT/UTF8
Codec ID/Info : UTF-8 Plain Text
Title : ENG
Language : English
Default : Yes
Forced : No

Menu
00:00:00.000 : en:00:00:00.000
00:05:15.792 : en:00:05:15.792
00:14:47.667 : en:00:14:47.667
00:21:11.542 : en:00:21:11.542
00:27:32.000 : en:00:27:32.000
00:32:10.042 : en:00:32:10.042
00:38:43.750 : en:00:38:43.750
00:43:45.625 : en:00:43:45.625
00:51:42.250 : en:00:51:42.250
00:59:43.125 : en:00:59:43.125
01:05:45.333 : en:01:05:45.333
01:14:08.750 : en:01:14:08.750
01:19:49.042 : en:01:19:49.042
01:26:49.125 : en:01:26:49.125
01:30:27.708 : en:01:30:27.708
01:37:43.333 : en:01:37:43.333
Скріншоти










За українську доріжку від каналу Cine+ подяка п.: Sando7, -_-B_E_N_D_E_R-_-
За запис звуку з каналу Інтер дякуємо Krigg070 і Bohdan237
За укр. постер подяка п. Ham_R
Особиста подяка пану denixx за надану матеріальну допомогу на підтримку цього і майбутніх релізів.
Джерело:


 Трекер:    Зареєстрований   

Завантажити / скачати фільм українською



відео для новачків



 Зареєстрований:   2018-12-03 17:38
 Розмір:   4.65 GB 
 Оцінка фільму:   10/10 (Голосів: 4)
   
Інші релізи
   Ти не ти / You're Not You (2014) Electroz  4 / 0   1.37 GB   2017-12-20 18:50 
   Ти не ти / You're Not You (2014) AVC -_-B_E_N_D_E_R-_-  0 / 0   2.29 GB   2017-12-20 16:39 
Ваш часовий пояс: GMT + 2 Години

Нова тема   Відповісти