Ті, що летять крізь ніч (Сезон 1, серії 1-5) / Nightflyers (Season 1, episodes 1-5) (2018) 1080p Ukr/Eng

Нові коментарі

Нова тема   Відповісти
Автор Повідомлення
DniproFilm 
Свій


З нами з: 10.10.18
Востаннє: 10.12.18
Повідомлень: 141

2018-12-03 14:49  
Ті, що летять крізь ніч (Сезон 1, серії 1-5) / Nightflyers (Season 1, episodes 1-5) (2018) 1080p Ukr/Eng

Ті, що летять крізь ніч (Сезон 1, серії 1-5) / Nightflyers (Season 1, episodes 1-5) (2018) 1080p Ukr/Eng


Жанр: фантастика, жахи
Країна:США


Кінокомпанія / телеканал: Gaeta, Rosenzweig Films, Hypnotic, Netflix

Режисер: Ендрю МакКарті, Меггі Кілі, Майк Кехілл
Актори/ролі озвучують: Джоді Сміт, Гретхен Мол, Овен Мекен, Девід Аджала, Енгус Семпсон, Сем Страйк, Майя Ешет, Брайан Ф. О'Бірн, Філліп Різ та інші

Сюжет:
В центрі сюжету - історія групи астронавтів-дослідників, які в 2093 році відправляються в міжгалактичну експедицію, мета якої – контакт із позаземними цивілізаціями. По дорозі вони перестають вірити в успіх сумнівною затії, починають лаятись між собою, а головне розуміють, що на борту корабля хтось є. Щогодини подорож стає все більш складною, та більш небезпечною для життя астронавтів…


Тривалість: 1 серія: ~ 60 хв. (цілком серій: 10)
Перелік серій

1. All That We Left Behind
2. Torches and Pitchforks
3. The Abyss Stares Back
4. White Rabbit
5. Greywing
6. The Sacred Gift
7. Transmission
8. Rebirth
9. Icarus
10. All That We Have Found
Якість:
Відео:
кодек:
розмір кадру: 1920x960
бітрейт: ~7000 кб/с

Аудіо # 1:
мова: українська
переклад: багатоголосий закадровий
кодек: 5.1
бітрейт: 384 кб/с

Аудіо # 2:
мова: англійська
переклад: оригінал
кодек: 5.1
бітрейт: 640 кб/с

Джерело озвучення:
DniproFilm
Info

Video
ID : 1
Format : AVC
Format/Info : Advanced Video Codec
Format profile : [email protected]
Format settings : CABAC / 4 Ref Frames
Format settings, CABAC : Yes
Format settings, ReFrames : 4 frames
Codec ID : V_MPEG4/ISO/AVC
Duration : 58 min 48 s
Bit rate : 6 936 kb/s
Width : 1 920 pixels
Height : 960 pixels
Display aspect ratio : 2.000
Frame rate mode : Constant
Frame rate : 23.976 (24000/1001) FPS
Standard : NTSC
Color space : YUV
Chroma subsampling : 4:2:0
Bit depth : 8 bits
Scan type : Progressive
Bits/(Pixel*Frame) : 0.157
Stream size : 2.85 GiB (87%)
Language : English
Default : Yes
Forced : No
Color range : Limited
Color primaries : BT.709
Transfer characteristics : BT.709
Matrix coefficients : BT.709

Audio #1
ID : 2
Format : AC-3
Format/Info : Audio Coding 3
Commercial name : Dolby Digital
Codec ID : A_AC3
Duration : 58 min 48 s
Bit rate mode : Constant
Bit rate : 384 kb/s
Channel(s) : 6 channels
Channel positions : Front: L C R, Side: L R, LFE
Sampling rate : 48.0 kHz
Frame rate : 31.250 FPS (1536 SPF)
Bit depth : 16 bits
Compression mode : Lossy
Stream size : 162 MiB (5%)
Title : DniproFilm
Language : Ukrainian
Service kind : Complete Main
Default : Yes
Forced : No

Audio #2
ID : 3
Format : AC-3
Format/Info : Audio Coding 3
Codec ID : A_AC3
Duration : 58 min 17 s
Bit rate : 640 kb/s
Channel(s) : 6 channels
Sampling rate : 48.0 kHz
Frame rate : 31.250 FPS (1536 SPF)
Compression mode : Lossy
Stream size : 267 MiB (8%)
Language : English
Default : No
Forced : No
Скріншоти

Увага, присутня відео та аудіореклама.

Додано 5 серію.


Джерело: DniproFilm


Авторський реліз (завантажувати можна без реєстрації)
 Трекер:    Зареєстрований   

Завантажити / скачати серіал українською



відео для новачків



 Зареєстрований:   2018-12-10 13:40
 Розмір:   12.81 GB 
 Оцінка серіалу:   10/10 (Голосів: 4)
   
Roman7Fedorak 
Свій


З нами з: 30.03.12
Востаннє: 09.12.18
Повідомлень: 94

2018-12-03 15:19  
жду Happy
Neytreenor 
Відео Гуртом - запис з ТБ
Відео Гуртом - запис з ТБ


З нами з: 03.04.11
Востаннє: 10.12.18
Повідомлень: 1510

2018-12-03 16:40  
DniproFilm,
А хіба має бути не "Тобі не уникнути ТОГО, що всередині"?

DniproFilm 
Свій


З нами з: 10.10.18
Востаннє: 10.12.18
Повідомлень: 141

2018-12-04 15:43  
РЕЛІЗ ОНОВЛЕНО! (04.12.2018) Додано 2 серію.

SK1974 
Новенький


З нами з: 15.01.11
Востаннє: 09.12.18
Повідомлень: 23

2018-12-08 16:59  
і тут вже реклама(
DniproFilm 
Свій


З нами з: 10.10.18
Востаннє: 10.12.18
Повідомлень: 141

2018-12-08 20:13  
РЕЛІЗ ОНОВЛЕНО! (08.12.2018) Додано 3-4 серії.

DniproFilm 
Свій


З нами з: 10.10.18
Востаннє: 10.12.18
Повідомлень: 141

2018-12-10 13:41  
РЕЛІЗ ОНОВЛЕНО! (10.12.2018) Додано 5 серію.

Ваш часовий пояс: GMT + 2 Години

Нова тема   Відповісти