Афера / Confidence (2003) 1080p Ukr/Eng | Sub Ukr/Eng

Нові коментарі

Нова тема   Відповісти
Автор Повідомлення
Anonymous 







2018-12-03 11:55  
Афера / Confidence (2003) 1080p Ukr/Eng | Sub Ukr/Eng

Афера / Confidence (2003) 1080p Ukr/Eng | Sub Ukr/Eng


Жанр: кримінальний, трилер
Країна: США, Німеччина, Канада



Кінокомпанія: Lions Gate Films, Cinerenta Medienbeteiligungs KG, Ignite Entertainment
Режисер: Джеймс Фоулі / James Foley
Актори: Едвард Бернс / Edward Burns, Рейчел Вайс / Rachel Weisz, Енді Ґарсіа / Andy Garcia, Дастін Гоффмeн / Dustin Hoffman, Пол Джіаматті / Paul Giamatti, Донал Лоґ / Donal Logue, Луїс Ґусман / Luis Guzman, Браян Ван Голт / Brian Van Holt, Френкі Джі / Franky G, Морріс Честнат / Morris Chestnut та інші

Сюжет:
Остання афера хитромудрого шахрая Джейка Віґа привела до того, що його шляхи перетнулись з ексцентричним мафіозним босом Вінстоном Кінґом на прізвисько «Король».

Мафія жартувати не любить, а любить "вибивати" борги з тих, хто старається її обвести навколо пальця. Щоб залишитись живим і розплатитись з боргами, Джейку потрібно буде влаштувати нову аферу - складну схему, в якій знадобиться «творчий підхід до бухгалтерії».


Тривалість: 01:37:10
Якість: 1080p
Відео:
кодек:
розмір кадру: 1920 x 816
бітрейт: 8500 кб/с

Аудіо # 1:
мова: українська
переклад: двоголосий закадровий
кодек: AC-3 2.0
бітрейт: 192 кб/с

Аудіо # 2:
мова: англійська
переклад: оригінал
кодек: AC-3 5.1
бітрейт: 448 кб/с

Субтитри # 1:
мова: українська (Full),
тип: програмні (м'які)
формат: *.srt

Субтитри # 2:
мова: англійська (Full),
тип: програмні (м'які)
формат: *.srt
Info
Код:
General
Unique ID                                : 17554717923138838248212193951595376268 (0xD34EA6ABF799917C8FD7181BEF42E8C)
Complete name                            : D:\Video\Confidence (2003) 1080p [UKR_ENG].
Format                                   :
Format version                           : Version 4 / Version 2
File size                                : 6.20 GiB
Duration                                 : 1 h 37 min
Overall bit rate                         : 9 140 kb/s
Movie name                               : Confidence (2003)
Encoded date                             : UTC 2018-12-03 08:38:36
Writing application                      : v20.0.0 ('I Am The Sun') 32-bit
Writing library                          : libebml v1.3.5 + v1.4.8
Cover                                    : Yes
Attachments                              : cover.png

Video
ID                                       : 1
Format                                   : AVC
Format/Info                              : Advanced Video Codec
Format profile                           : [email protected]
Format settings                          : CABAC / 5 Ref Frames
Format settings, CABAC                   : Yes
Format settings, ReFrames                : 5 frames
Codec ID                                 : V_MPEG4/ISO/AVC
Duration                                 : 1 h 37 min
Bit rate                                 : 8 500 kb/s
Width                                    : 1 920 pixels
Height                                   : 816 pixels
Display aspect ratio                     : 2.35:1
Frame rate mode                          : Constant
Frame rate                               : 23.976 FPS
Color space                              : YUV
Chroma subsampling                       : 4:2:0
Bit depth                                : 8 bits
Scan type                                : Progressive
Bits/(Pixel*Frame)                       : 0.226
Stream size                              : 5.77 GiB (93%)
Title                                    : Confidence (2003)
Writing library                          : core 130 r2273 b3065e6
Encoding settings                        : cabac=1 / ref=5 / deblock=1:-3:-3 / analyse=0x3:0x133 / me=umh / subme=11 / psy=1 / psy_rd=1.00:0.10 / mixed_ref=1 / me_range=32 / chroma_me=1 / trellis=2 / 8x8dct=1 / cqm=0 / deadzone=21,11 / fast_pskip=1 / chroma_qp_offset=-3 / threads=6 / lookahead_threads=1 / sliced_threads=0 / nr=0 / decimate=1 / interlaced=0 / bluray_compat=0 / constrained_intra=0 / bframes=3 / b_pyramid=2 / b_adapt=2 / b_bias=0 / direct=3 / weightb=1 / open_gop=0 / weightp=2 / keyint=250 / keyint_min=23 / scenecut=40 / intra_refresh=0 / rc_lookahead=60 / rc=2pass / mbtree=1 / bitrate=8500 / ratetol=1.0 / qcomp=0.60 / qpmin=0 / qpmax=69 / qpstep=4 / cplxblur=20.0 / qblur=0.5 / ip_ratio=1.40 / aq=1:1.00
Language                                 : English
Default                                  : Yes
Forced                                   : No

Audio #1
ID                                       : 2
Format                                   : AC-3
Format/Info                              : Audio Coding 3
Codec ID                                 : A_AC3
Duration                                 : 1 h 37 min
Bit rate mode                            : Constant
Bit rate                                 : 192 kb/s
Channel(s)                               : 2 channels
Channel positions                        : Front: L R
Sampling rate                            : 48.0 kHz
Frame rate                               : 31.250 FPS (1536 SPF)
Bit depth                                : 16 bits
Compression mode                         : Lossy
Stream size                              : 133 MiB (2%)
Title                                    : ДЗ - TET
Language                                 : Ukrainian
Service kind                             : Complete Main
Default                                  : No
Forced                                   : No

Audio #2
ID                                       : 3
Format                                   : AC-3
Format/Info                              : Audio Coding 3
Codec ID                                 : A_AC3
Duration                                 : 1 h 37 min
Bit rate mode                            : Constant
Bit rate                                 : 448 kb/s
Channel(s)                               : 6 channels
Channel positions                        : Front: L C R, Side: L R, LFE
Sampling rate                            : 48.0 kHz
Frame rate                               : 31.250 FPS (1536 SPF)
Bit depth                                : 16 bits
Compression mode                         : Lossy
Stream size                              : 311 MiB (5%)
Title                                    : Original
Language                                 : English
Service kind                             : Complete Main
Default                                  : No
Forced                                   : No

Text #1
ID                                       : 4
Format                                   : UTF-8
Codec ID                                 : S_TEXT/UTF8
Codec ID/Info                            : UTF-8 Plain Text
Duration                                 : 1 h 30 min
Bit rate                                 : 129 b/s
Count of elements                        : 1232
Stream size                              : 86.6 KiB (0%)
Title                                    : Full
Language                                 : Ukrainian
Default                                  : Yes
Forced                                   : No

Text #2
ID                                       : 5
Format                                   : UTF-8
Codec ID                                 : S_TEXT/UTF8
Codec ID/Info                            : UTF-8 Plain Text
Duration                                 : 1 h 35 min
Bit rate                                 : 91 b/s
Count of elements                        : 1727
Stream size                              : 64.0 KiB (0%)
Title                                    : Full
Language                                 : English
Default                                  : No
Forced                                   : No

Menu
00:00:00.000                             : en:I'm Dead
00:05:14.000                             : en:Grifters
00:09:08.000                             : en:Big, Dead Al
00:11:34.000                             : en:What's A King
00:15:00.000                             : en:Accounting Problem
00:17:05.000                             : en:Technique Vs. Style
00:20:24.000                             : en:Can't Do. Won't Do.
00:25:33.000                             : en:The Wrong Girl
00:28:43.000                             : en:Morgan Price
00:33:42.000                             : en:Diseased
00:37:11.000                             : en:A.D.H.D
00:41:32.000                             : en:Mark And Shill
00:45:57.000                             : en:The Law
00:50:15.000                             : en:Redheads
00:55:03.000                             : en:Leon
01:00:22.000                             : en:Intuition
01:03:39.000                             : en:The Itch
01:07:28.000                             : en:Gig Is Up
01:12:01.000                             : en:Smart Play
01:14:08.000                             : en:Green Twinkies
01:24:12.000                             : en:It Was Lupus
01:27:13.000                             : en:Confidence
01:31:03.000                             : en:Trust Is A 4 Letter Word
01:32:11.000                             : en:Keep The Girl
Світлини



Джерело: &
Особиста оцінка: 0 - не дивився


Срібний реліз (на рейтинг впливає 50% завантаженого)
 Трекер:    Зареєстрований   

Завантажити / скачати фільм українською



відео для новачків



 Зареєстрований:   2018-12-03 11:55
 Розмір:   6.2 GB 
 Оцінка фільму:   10/10 (Голосів: 6)
   
Інші релізи
   Афера / Confidence (2003) 720p Ukr/Eng | sub Eng nazar_9527  1 / 0   3.27 GB   2014-01-10 20:58 
   Афера / Confidence (2003) Ukr/Eng | sub Eng DеLight  3 / 0   1.48 GB   2013-06-24 17:17 
   Афера / Confidence (2003) TPEM  3 / 0   1.4 GB   2010-01-15 14:42 
Anonymous 







2018-12-03 11:58  
В 264 кодеку, бо це найкращий первинний файл, який зміг знайти. А робити з нього ріп в 265 кодеку немає сенсу.
Ваш часовий пояс: GMT + 2 Години

Нова тема   Відповісти